<?xml version="1.0" standalone="no"?> 
<!--
Font Awesome Free 5.0.11 by @fontawesome - https://fontawesome.com/
License - https://fontawesome.com/license (Icons: CC BY 4.0, Fonts: SIL OFL 1.1, Code: MIT License)
-->
<!DOCTYPE svg PUBLIC "-//W3C//DTD SVG 1.1//EN" "http://www.w3.org/Graphics/SVG/1.1/DTD/svg11.dtd" >
<svg xmlns="http://www.w3.org/2000/svg">
<defs>
  <font id="fontawesome-free" horiz-adv-x="640">
    <font-face font-family="Font Awesome 5 Free"
      units-per-em="512" ascent="448"
      descent="64"
      font-weight="400"
      font-style="Regular" />
    <missing-glyph horiz-adv-x="0" />
    <glyph glyph-name="address-book"
      unicode="&#xF2B9;"
      horiz-adv-x="448" d=" M436 288C442.6 288 448 293.4 448 300V340C448 346.6 442.6 352 436 352H416V400C416 426.5 394.5 448 368 448H48C21.5 448 0 426.5 0 400V-16C0 -42.5 21.5 -64 48 -64H368C394.5 -64 416 -42.5 416 -16V32H436C442.6 32 448 37.4 448 44V84C448 90.6 442.6 96 436 96H416V160H436C442.6 160 448 165.4 448 172V212C448 218.6 442.6 224 436 224H416V288H436zM368 -16H48V400H368V-16zM208 192C243.3 192 272 220.7 272 256S243.3 320 208 320S144 291.3 144 256S172.7 192 208 192zM118.4 64H297.6C310 64 320 72.6 320 83.2V102.4C320 134.2 289.9 160 252.8 160C242 160 234.1 152 208 152C181.1 152 174.6 160 163.2 160C126.1 160 96 134.2 96 102.4V83.2C96 72.6 106 64 118.4 64z" />
    <glyph glyph-name="address-card"
      unicode="&#xF2BB;"
      horiz-adv-x="576" d=" M528 416H48C21.5 416 0 394.5 0 368V16C0 -10.5 21.5 -32 48 -32H528C554.5 -32 576 -10.5 576 16V368C576 394.5 554.5 416 528 416zM528 16H48V368H528V16zM208 192C243.3 192 272 220.7 272 256S243.3 320 208 320S144 291.3 144 256S172.7 192 208 192zM118.4 64H297.6C310 64 320 72.6 320 83.2V102.4C320 134.2 289.9 160 252.8 160C242 160 234.1 152 208 152C181.1 152 174.6 160 163.2 160C126.1 160 96 134.2 96 102.4V83.2C96 72.6 106 64 118.4 64zM360 128H472C476.4 128 480 131.6 480 136V152C480 156.4 476.4 160 472 160H360C355.6 160 352 156.4 352 152V136C352 131.6 355.6 128 360 128zM360 192H472C476.4 192 480 195.6 480 200V216C480 220.4 476.4 224 472 224H360C355.6 224 352 220.4 352 216V200C352 195.6 355.6 192 360 192zM360 256H472C476.4 256 480 259.6 480 264V280C480 284.4 476.4 288 472 288H360C355.6 288 352 284.4 352 280V264C352 259.6 355.6 256 360 256z" />
    <glyph glyph-name="arrow-alt-circle-down"
      unicode="&#xF358;"
      horiz-adv-x="512" d=" M256 440C119 440 8 329 8 192S119 -56 256 -56S504 55 504 192S393 440 256 440zM256 -8C145.5 -8 56 81.5 56 192S145.5 392 256 392S456 302.5 456 192S366.5 -8 256 -8zM224 308V192H157C146.3 192 141 179.1 148.5 171.5L247.5 72.5C252.2 67.8 259.8 67.8 264.5 72.5L363.5 171.5C371.1 179.1 365.7 192 355 192H288V308C288 314.6 282.6 320 276 320H236C229.4 320 224 314.6 224 308z" />
    <glyph glyph-name="arrow-alt-circle-left"
      unicode="&#xF359;"
      horiz-adv-x="512" d=" M8 192C8 55 119 -56 256 -56S504 55 504 192S393 440 256 440S8 329 8 192zM456 192C456 81.5 366.5 -8 256 -8S56 81.5 56 192S145.5 392 256 392S456 302.5 456 192zM384 212V172C384 165.4 378.6 160 372 160H256V93C256 82.3 243.1 77 235.5 84.5L136.5 183.5C131.8 188.2 131.8 195.8 136.5 200.5L235.5 299.5C243.1 307.1 256 301.7 256 291V224H372C378.6 224 384 218.6 384 212z" />
    <glyph glyph-name="arrow-alt-circle-right"
      unicode="&#xF35A;"
      horiz-adv-x="512" d=" M504 192C504 329 393 440 256 440S8 329 8 192S119 -56 256 -56S504 55 504 192zM56 192C56 302.5 145.5 392 256 392S456 302.5 456 192S366.5 -8 256 -8S56 81.5 56 192zM128 172V212C128 218.6 133.4 224 140 224H256V291C256 301.7 268.9 307 276.5 299.5L375.5 200.5C380.2 195.8 380.2 188.2 375.5 183.5L276.5 84.5C268.9 76.9 256 82.3 256 93V160H140C133.4 160 128 165.4 128 172z" />
    <glyph glyph-name="arrow-alt-circle-up"
      unicode="&#xF35B;"
      horiz-adv-x="512" d=" M256 -56C393 -56 504 55 504 192S393 440 256 440S8 329 8 192S119 -56 256 -56zM256 392C366.5 392 456 302.5 456 192S366.5 -8 256 -8S56 81.5 56 192S145.5 392 256 392zM276 64H236C229.4 64 224 69.4 224 76V192H157C146.3 192 141 204.9 148.5 212.5L247.5 311.5C252.2 316.2 259.8 316.2 264.5 311.5L363.5 212.5C371.1 204.9 365.7 192 355 192H288V76C288 69.4 282.6 64 276 64z" />
    <glyph glyph-name="bell-slash"
      unicode="&#xF1F6;"
      horiz-adv-x="576" d=" M130.9 48C114.138 48 105.765 68.39 117.566 80.191C142.792 105.417 163.66 129.5290000000001 168.215 201.6710000000001L121.438 242.9450000000001A168.48 168.48 0 0 1 121.142 233.1430000000001C121.142 151.21 103.591 133.8510000000001 86.599 117.0650000000001C38.504 69.559 73.726 0 130.919 0H224C224 -35.346 252.654 -64 288 -64S352 -35.346 352 0H396.777L342.377 48H130.9zM288 -24C274.766 -24 264 -13.234 264 0H312C312 -13.234 301.234 -24 288 -24zM571.867 -24.553L503.936 35.018C517.04 59.136 515.4599999999999 91.336 489.404 117.0600000000001C472.415 133.8450000000001 454.858 151.2030000000001 454.858 233.1430000000001C454.858 316.1690000000001 393.9 385.2170000000001 314.391 397.9050000000001A31.848 31.848 0 0 1 320 416C320 433.673 305.673 448 288 448S256 433.673 256 416A31.848 31.848 0 0 1 261.609 397.905C220.138 391.287 183.718 369.334 158.36 338.064L36.459 444.963C31.401 449.399 23.682 448.919 19.219 443.892L3.056 425.687C-1.407 420.6600000000001 -0.925 412.988 4.134 408.553L539.542 -60.963C544.6 -65.399 552.3190000000001 -64.919 556.782 -59.892L572.945 -41.687C577.407 -36.66 576.9250000000001 -28.988 571.8670000000001 -24.553zM288 352C353.538 352 406.857 298.681 406.857 233.143C406.857 135.493 430.078 108.569 458.425 80.191C461.333 77.283 462.9979999999999 73.8630000000001 463.634 70.359L194.482 306.3880000000001C216.258 334.133 250.075 352 288 352z" />
    <glyph glyph-name="bell"
      unicode="&#xF0F3;"
      horiz-adv-x="448" d=" M425.403 117.061C408.4140000000001 133.846 390.8570000000001 151.204 390.8570000000001 233.144C390.8570000000001 316.17 329.899 385.218 250.39 397.906A31.842999999999996 31.842999999999996 0 0 1 256 416C256 433.673 241.673 448 224 448S192 433.673 192 416A31.848 31.848 0 0 1 197.609 397.905C118.101 385.217 57.143 316.169 57.143 233.143C57.143 151.21 39.592 133.851 22.6 117.065C-25.496 69.559 9.726 0 66.919 0H160C160 -35.346 188.654 -64 224 -64C259.346 -64 288 -35.346 288 0H381.08C438.27 0 473.495 69.583 425.403 117.061zM224 -24C210.766 -24 200 -13.234 200 0H248C248 -13.234 237.234 -24 224 -24zM381.092 48H66.9C50.138 48 41.765 68.39 53.566 80.191C82.151 108.776 105.143 135.915 105.143 233.1430000000001C105.143 298.6810000000001 158.462 352 224 352S342.857 298.681 342.857 233.143C342.857 135.493 366.078 108.569 394.425 80.191C406.278 68.339 397.783 48 381.092 48z" />
    <glyph glyph-name="bookmark"
      unicode="&#xF02E;"
      horiz-adv-x="384" d=" M336 448H48C21.49 448 0 426.51 0 400V-64L192 48L384 -64V400C384 426.51 362.51 448 336 448zM336 19.57L192 103.57L48 19.57V394A6 6 0 0 0 54 400H330C333.314 400 336 397.317 336 394.004V19.57z" />
    <glyph glyph-name="building"
      unicode="&#xF1AD;"
      horiz-adv-x="448" d=" M128 300V340C128 346.6 133.4 352 140 352H180C186.6 352 192 346.6 192 340V300C192 293.4 186.6 288 180 288H140C133.4 288 128 293.4 128 300zM268 288H308C314.6 288 320 293.4 320 300V340C320 346.6 314.6 352 308 352H268C261.4 352 256 346.6 256 340V300C256 293.4 261.4 288 268 288zM140 192H180C186.6 192 192 197.4 192 204V244C192 250.6 186.6 256 180 256H140C133.4 256 128 250.6 128 244V204C128 197.4 133.4 192 140 192zM268 192H308C314.6 192 320 197.4 320 204V244C320 250.6 314.6 256 308 256H268C261.4 256 256 250.6 256 244V204C256 197.4 261.4 192 268 192zM192 108V148C192 154.6 186.6 160 180 160H140C133.4 160 128 154.6 128 148V108C128 101.4 133.4 96 140 96H180C186.6 96 192 101.4 192 108zM268 96H308C314.6 96 320 101.4 320 108V148C320 154.6 314.6 160 308 160H268C261.4 160 256 154.6 256 148V108C256 101.4 261.4 96 268 96zM448 -28V-64H0V-28C0 -21.4 5.4 -16 12 -16H31.5V424C31.5 437.3 42.2 448 55.5 448H392.5C405.8 448 416.5 437.3 416.5 424V-16H436C442.6 -16 448 -21.4 448 -28zM79.5 -15H192V52C192 58.6 197.4 64 204 64H244C250.6 64 256 58.6 256 52V-15H368.5V399L80 400L79.5 -15z" />
    <glyph glyph-name="calendar-alt"
      unicode="&#xF073;"
      horiz-adv-x="448" d=" M148 160H108C101.4 160 96 165.4 96 172V212C96 218.6 101.4 224 108 224H148C154.6 224 160 218.6 160 212V172C160 165.4 154.6 160 148 160zM256 172V212C256 218.6 250.6 224 244 224H204C197.4 224 192 218.6 192 212V172C192 165.4 197.4 160 204 160H244C250.6 160 256 165.4 256 172zM352 172V212C352 218.6 346.6 224 340 224H300C293.4 224 288 218.6 288 212V172C288 165.4 293.4 160 300 160H340C346.6 160 352 165.4 352 172zM256 76V116C256 122.6 250.6 128 244 128H204C197.4 128 192 122.6 192 116V76C192 69.4 197.4 64 204 64H244C250.6 64 256 69.4 256 76zM160 76V116C160 122.6 154.6 128 148 128H108C101.4 128 96 122.6 96 116V76C96 69.4 101.4 64 108 64H148C154.6 64 160 69.4 160 76zM352 76V116C352 122.6 346.6 128 340 128H300C293.4 128 288 122.6 288 116V76C288 69.4 293.4 64 300 64H340C346.6 64 352 69.4 352 76zM448 336V-16C448 -42.5 426.5 -64 400 -64H48C21.5 -64 0 -42.5 0 -16V336C0 362.5 21.5 384 48 384H96V436C96 442.6 101.4 448 108 448H148C154.6 448 160 442.6 160 436V384H288V436C288 442.6 293.4 448 300 448H340C346.6 448 352 442.6 352 436V384H400C426.5 384 448 362.5 448 336zM400 -10V288H48V-10C48 -13.3 50.7 -16 54 -16H394C397.3 -16 400 -13.3 400 -10z" />
    <glyph glyph-name="calendar-check"
      unicode="&#xF274;"
      horiz-adv-x="448" d=" M400 384H352V436C352 442.627 346.627 448 340 448H300C293.373 448 288 442.627 288 436V384H160V436C160 442.627 154.627 448 148 448H108C101.373 448 96 442.627 96 436V384H48C21.49 384 0 362.51 0 336V-16C0 -42.51 21.49 -64 48 -64H400C426.51 -64 448 -42.51 448 -16V336C448 362.51 426.51 384 400 384zM394 -16H54A6 6 0 0 0 48 -10V288H400V-10A6 6 0 0 0 394 -16zM341.151 184.65L198.842 43.481C194.137 38.814 186.539 38.844 181.871 43.549L106.78 119.248C102.113 123.953 102.143 131.551 106.848 136.219L129.567 158.755C134.272 163.422 141.87 163.392 146.537 158.686L190.641 114.225L301.713 224.406C306.418 229.073 314.016 229.043 318.6840000000001 224.3379999999999L341.2200000000001 201.62C345.887 196.9149999999999 345.8560000000001 189.317 341.151 184.65z" />
    <glyph glyph-name="calendar-minus"
      unicode="&#xF272;"
      horiz-adv-x="448" d=" M124 120C117.4 120 112 125.4 112 132V156C112 162.6 117.4 168 124 168H324C330.6 168 336 162.6 336 156V132C336 125.4 330.6 120 324 120H124zM448 336V-16C448 -42.5 426.5 -64 400 -64H48C21.5 -64 0 -42.5 0 -16V336C0 362.5 21.5 384 48 384H96V436C96 442.6 101.4 448 108 448H148C154.6 448 160 442.6 160 436V384H288V436C288 442.6 293.4 448 300 448H340C346.6 448 352 442.6 352 436V384H400C426.5 384 448 362.5 448 336zM400 -10V288H48V-10C48 -13.3 50.7 -16 54 -16H394C397.3 -16 400 -13.3 400 -10z" />
    <glyph glyph-name="calendar-plus"
      unicode="&#xF271;"
      horiz-adv-x="448" d=" M336 156V132C336 125.4 330.6 120 324 120H248V44C248 37.4 242.6 32 236 32H212C205.4 32 200 37.4 200 44V120H124C117.4 120 112 125.4 112 132V156C112 162.6 117.4 168 124 168H200V244C200 250.6 205.4 256 212 256H236C242.6 256 248 250.6 248 244V168H324C330.6 168 336 162.6 336 156zM448 336V-16C448 -42.5 426.5 -64 400 -64H48C21.5 -64 0 -42.5 0 -16V336C0 362.5 21.5 384 48 384H96V436C96 442.6 101.4 448 108 448H148C154.6 448 160 442.6 160 436V384H288V436C288 442.6 293.4 448 300 448H340C346.6 448 352 442.6 352 436V384H400C426.5 384 448 362.5 448 336zM400 -10V288H48V-10C48 -13.3 50.7 -16 54 -16H394C397.3 -16 400 -13.3 400 -10z" />
    <glyph glyph-name="calendar-times"
      unicode="&#xF273;"
      horiz-adv-x="448" d=" M311.7 73.3L294.7 56.3C290 51.6 282.4 51.6 277.7 56.3L224 110.1L170.3 56.4C165.6 51.7 158 51.7 153.3 56.4L136.3 73.4C131.6 78.1 131.6 85.7000000000001 136.3 90.4L190 144.1L136.3 197.8C131.6 202.5 131.6 210.1 136.3 214.8L153.3 231.8C158 236.5 165.6 236.5 170.3 231.8L224 178.1L277.7 231.8C282.4 236.5 290 236.5 294.7 231.8L311.7 214.8C316.4 210.1 316.4 202.5 311.7 197.8L257.9 144L311.6 90.3C316.4 85.6 316.4 78 311.7 73.3zM448 336V-16C448 -42.5 426.5 -64 400 -64H48C21.5 -64 0 -42.5 0 -16V336C0 362.5 21.5 384 48 384H96V436C96 442.6 101.4 448 108 448H148C154.6 448 160 442.6 160 436V384H288V436C288 442.6 293.4 448 300 448H340C346.6 448 352 442.6 352 436V384H400C426.5 384 448 362.5 448 336zM400 -10V288H48V-10C48 -13.3 50.7 -16 54 -16H394C397.3 -16 400 -13.3 400 -10z" />
    <glyph glyph-name="calendar"
      unicode="&#xF133;"
      horiz-adv-x="448" d=" M400 384H352V436C352 442.6 346.6 448 340 448H300C293.4 448 288 442.6 288 436V384H160V436C160 442.6 154.6 448 148 448H108C101.4 448 96 442.6 96 436V384H48C21.5 384 0 362.5 0 336V-16C0 -42.5 21.5 -64 48 -64H400C426.5 -64 448 -42.5 448 -16V336C448 362.5 426.5 384 400 384zM394 -16H54C50.7 -16 48 -13.3 48 -10V288H400V-10C400 -13.3 397.3 -16 394 -16z" />
    <glyph glyph-name="caret-square-down"
      unicode="&#xF150;"
      horiz-adv-x="448" d=" M125.1 240H322.9C333.6 240 339 227 331.4 219.5L232.5 121.2C227.8 116.5 220.3 116.5 215.6 121.2L116.7 219.5C109 227 114.4 240 125.1 240zM448 368V16C448 -10.5 426.5 -32 400 -32H48C21.5 -32 0 -10.5 0 16V368C0 394.5 21.5 416 48 416H400C426.5 416 448 394.5 448 368zM400 22V362C400 365.3 397.3 368 394 368H54C50.7 368 48 365.3 48 362V22C48 18.7 50.7 16 54 16H394C397.3 16 400 18.7 400 22z" />
    <glyph glyph-name="caret-square-left"
      unicode="&#xF191;"
      horiz-adv-x="448" d=" M272 290.9V93.1C272 82.4 259 77 251.5 84.6L153.2 183.5C148.5 188.2 148.5 195.7 153.2 200.4L251.5 299.3C259 307 272 301.6 272 290.9zM448 368V16C448 -10.5 426.5 -32 400 -32H48C21.5 -32 0 -10.5 0 16V368C0 394.5 21.5 416 48 416H400C426.5 416 448 394.5 448 368zM400 22V362C400 365.3 397.3 368 394 368H54C50.7 368 48 365.3 48 362V22C48 18.7 50.7 16 54 16H394C397.3 16 400 18.7 400 22z" />
    <glyph glyph-name="caret-square-right"
      unicode="&#xF152;"
      horiz-adv-x="448" d=" M176 93.1V290.9C176 301.6 189 307 196.5 299.4L294.8 200.5C299.5 195.8 299.5 188.3 294.8 183.6L196.5 84.7000000000001C189 77.0000000000001 176 82.4 176 93.1zM448 368V16C448 -10.5 426.5 -32 400 -32H48C21.5 -32 0 -10.5 0 16V368C0 394.5 21.5 416 48 416H400C426.5 416 448 394.5 448 368zM400 22V362C400 365.3 397.3 368 394 368H54C50.7 368 48 365.3 48 362V22C48 18.7 50.7 16 54 16H394C397.3 16 400 18.7 400 22z" />
    <glyph glyph-name="caret-square-up"
      unicode="&#xF151;"
      horiz-adv-x="448" d=" M322.9 144H125.1C114.4 144 109 157 116.6 164.5L215.5 262.8C220.2 267.5 227.7 267.5 232.4 262.8L331.3 164.5C339 157 333.6 144 322.9000000000001 144zM448 368V16C448 -10.5 426.5 -32 400 -32H48C21.5 -32 0 -10.5 0 16V368C0 394.5 21.5 416 48 416H400C426.5 416 448 394.5 448 368zM400 22V362C400 365.3 397.3 368 394 368H54C50.7 368 48 365.3 48 362V22C48 18.7 50.7 16 54 16H394C397.3 16 400 18.7 400 22z" />
    <glyph glyph-name="chart-bar"
      unicode="&#xF080;"
      horiz-adv-x="512" d=" M500 48C506.6 48 512 42.6 512 36V12C512 5.4 506.6 0 500 0H12C5.4 0 0 5.4 0 12V372C0 378.6 5.4 384 12 384H36C42.6 384 48 378.6 48 372V48H500zM144 108V180C144 186.6 138.6 192 132 192H108C101.4 192 96 186.6 96 180V108C96 101.4 101.4 96 108 96H132C138.6 96 144 101.4 144 108zM240 108V308C240 314.6 234.6 320 228 320H204C197.4 320 192 314.6 192 308V108C192 101.4 197.4 96 204 96H228C234.6 96 240 101.4 240 108zM336 108V244C336 250.6 330.6 256 324 256H300C293.4 256 288 250.6 288 244V108C288 101.4 293.4 96 300 96H324C330.6 96 336 101.4 336 108zM432 108V340C432 346.6 426.6 352 420 352H396C389.4 352 384 346.6 384 340V108C384 101.4 389.4 96 396 96H420C426.6 96 432 101.4 432 108z" />
    <glyph glyph-name="check-circle"
      unicode="&#xF058;"
      horiz-adv-x="512" d=" M256 440C119.033 440 8 328.967 8 192S119.033 -56 256 -56S504 55.033 504 192S392.967 440 256 440zM256 392C366.532 392 456 302.549 456 192C456 81.468 366.549 -8 256 -8C145.468 -8 56 81.451 56 192C56 302.532 145.451 392 256 392M396.204 261.733L373.668 284.451C369.0010000000001 289.156 361.403 289.187 356.698 284.519L215.346 144.303L155.554 204.58C150.887 209.285 143.289 209.316 138.584 204.649L115.865 182.113C111.16 177.446 111.129 169.848 115.797 165.142L206.578 73.6259999999999C211.245 68.9209999999999 218.843 68.8899999999999 223.548 73.5579999999999L396.1370000000001 244.762C400.8410000000001 249.43 400.8710000000001 257.0279999999999 396.2040000000001 261.733z" />
    <glyph glyph-name="check-square"
      unicode="&#xF14A;"
      horiz-adv-x="448" d=" M400 416H48C21.49 416 0 394.51 0 368V16C0 -10.51 21.49 -32 48 -32H400C426.51 -32 448 -10.51 448 16V368C448 394.51 426.51 416 400 416zM400 16H48V368H400V16zM364.136 257.724L191.547 86.52C186.842 81.853 179.244 81.883 174.577 86.588L83.796 178.104C79.129 182.809 79.159 190.407 83.865 195.075L106.584 217.611C111.289 222.278 118.887 222.248 123.554 217.542L183.346 157.265L324.698 297.481C329.403 302.148 337.001 302.118 341.668 297.413L364.204 274.695C368.871 269.9890000000001 368.841 262.391 364.136 257.724z" />
    <glyph glyph-name="circle"
      unicode="&#xF111;"
      horiz-adv-x="512" d=" M256 440C119 440 8 329 8 192S119 -56 256 -56S504 55 504 192S393 440 256 440zM256 -8C145.5 -8 56 81.5 56 192S145.5 392 256 392S456 302.5 456 192S366.5 -8 256 -8z" />
    <glyph glyph-name="clipboard"
      unicode="&#xF328;"
      horiz-adv-x="384" d=" M336 384H256C256 419.29 227.29 448 192 448S128 419.29 128 384H48C21.49 384 0 362.51 0 336V-16C0 -42.51 21.49 -64 48 -64H336C362.51 -64 384 -42.51 384 -16V336C384 362.51 362.51 384 336 384zM330 -16H54A6 6 0 0 0 48 -10V330A6 6 0 0 0 54 336H96V300C96 293.373 101.373 288 108 288H276C282.627 288 288 293.373 288 300V336H330A6 6 0 0 0 336 330V-10A6 6 0 0 0 330 -16zM192 408C205.255 408 216 397.255 216 384S205.255 360 192 360S168 370.745 168 384S178.745 408 192 408" />
    <glyph glyph-name="clock"
      unicode="&#xF017;"
      horiz-adv-x="512" d=" M256 440C119 440 8 329 8 192S119 -56 256 -56S504 55 504 192S393 440 256 440zM256 -8C145.5 -8 56 81.5 56 192S145.5 392 256 392S456 302.5 456 192S366.5 -8 256 -8zM317.8 96.4L232.9 158.1C229.8 160.4 228 164 228 167.8V332C228 338.6 233.4 344 240 344H272C278.6 344 284 338.6 284 332V190.3L350.8 141.7C356.2 137.8 357.3 130.3 353.4000000000001 124.9L334.6 99C330.7000000000001 93.7 323.2000000000001 92.5 317.8 96.4z" />
    <glyph glyph-name="clone"
      unicode="&#xF24D;"
      horiz-adv-x="512" d=" M464 448H144C117.49 448 96 426.51 96 400V352H48C21.49 352 0 330.51 0 304V-16C0 -42.51 21.49 -64 48 -64H368C394.51 -64 416 -42.51 416 -16V32H464C490.51 32 512 53.49 512 80V400C512 426.51 490.51 448 464 448zM362 -16H54A6 6 0 0 0 48 -10V298A6 6 0 0 0 54 304H96V80C96 53.49 117.49 32 144 32H368V-10A6 6 0 0 0 362 -16zM458 80H150A6 6 0 0 0 144 86V394A6 6 0 0 0 150 400H458A6 6 0 0 0 464 394V86A6 6 0 0 0 458 80z" />
    <glyph glyph-name="closed-captioning"
      unicode="&#xF20A;"
      horiz-adv-x="512" d=" M464 384H48C21.5 384 0 362.5 0 336V48C0 21.5 21.5 0 48 0H464C490.5 0 512 21.5 512 48V336C512 362.5 490.5 384 464 384zM458 48H54C50.7 48 48 50.7 48 54V330C48 333.3 50.7 336 54 336H458C461.3 336 464 333.3 464 330V54C464 50.7 461.3 48 458 48zM246.9 133.7C248.6 131.3 248.4 128.1 246.4 126C192.8 69.2 73.6 93.9 73.6 193.9C73.6 291.2 195.3 313.4 246.1 264C248.2 262 248.6 260.8 247.1 258.3L229.6 227.8C227.7 224.7 223.4 223.8 220.5 226.1C179.7 258.1 125.9 241.0000000000001 125.9 194.9C125.9 146.9 176.9 124.4 218.1 162.3C220.9 164.8 225.2 164.4 227.3 161.4L246.9 133.7000000000001zM437.3 133.7C439 131.3 438.8 128.1 436.8 126C383.2 69.1 264 93.9 264 193.9C264 291.2 385.7 313.4 436.5 264C438.6 262 439 260.8 437.5 258.3L420 227.8C418.1 224.7 413.8 223.8 410.9 226.1C370.1 258.1 316.3 241.0000000000001 316.3 194.9C316.3 146.9 367.3 124.4 408.5 162.3C411.3 164.8 415.6 164.4 417.7 161.4L437.3 133.7000000000001z" />
    <glyph glyph-name="comment-alt"
      unicode="&#xF27A;"
      horiz-adv-x="512" d=" M448 448H64C28.7 448 0 419.3 0 384V96C0 60.7 28.7 32 64 32H160V-52C160 -59.1 165.8 -64 172 -64C174.4 -64 176.9 -63.3 179.1 -61.6L304 32H448C483.3 32 512 60.7 512 96V384C512 419.3 483.3 448 448 448zM464 96C464 87.2 456.8 80 448 80H288L275.2 70.4L208 20V80H64C55.2 80 48 87.2 48 96V384C48 392.8 55.2 400 64 400H448C456.8 400 464 392.8 464 384V96z" />
    <glyph glyph-name="comment-dots"
      unicode="&#xF4AD;"
      horiz-adv-x="512" d=" M144 240C126.3 240 112 225.7 112 208S126.3 176 144 176S176 190.3 176 208S161.7 240 144 240zM256 240C238.3 240 224 225.7 224 208S238.3 176 256 176S288 190.3 288 208S273.7 240 256 240zM368 240C350.3 240 336 225.7 336 208S350.3 176 368 176S400 190.3 400 208S385.7 240 368 240zM256 416C114.6 416 0 322.9 0 208C0 160.4 19.9 116.8 52.9 81.7C38 42.3 7 8.9 6.5 8.5C-0.1 1.5 -1.9 -8.7 1.9 -17.5S14.4 -32 24 -32C85.5 -32 134 -6.3 163.1 14.3C192 5.2 223.2 0 256 0C397.4 0 512 93.1 512 208S397.4 416 256 416zM256 48C229.3 48 202.9 52.1 177.6 60.1L154.9 67.3L135.4 53.5C121.1 43.4 101.5 32.1 77.9 24.5C85.2 36.6 92.3 50.2 97.8 64.7L108.4 92.8L87.8 114.6C69.7 133.9 48 165.8 48 208C48 296.2 141.3 368 256 368S464 296.2 464 208S370.7 48 256 48z" />
    <glyph glyph-name="comment"
      unicode="&#xF075;"
      horiz-adv-x="512" d=" M256 416C114.6 416 0 322.9 0 208C0 160.4 19.9 116.8 52.9 81.7C38 42.3 7 8.9 6.5 8.5C-0.1 1.5 -1.9 -8.7 1.9 -17.5S14.4 -32 24 -32C85.5 -32 134 -6.3 163.1 14.3C192 5.2 223.2 0 256 0C397.4 0 512 93.1 512 208S397.4 416 256 416zM256 48C229.3 48 202.9 52.1 177.6 60.1L154.9 67.3L135.4 53.5C121.1 43.4 101.5 32.1 77.9 24.5C85.2 36.6 92.3 50.2 97.8 64.7L108.4 92.8L87.8 114.6C69.7 133.9 48 165.8 48 208C48 296.2 141.3 368 256 368S464 296.2 464 208S370.7 48 256 48z" />
    <glyph glyph-name="comments"
      unicode="&#xF086;"
      horiz-adv-x="576" d=" M532 61.8C559.5 88.9 576 122.9 576 160C576 240 499.5 306.1 399.8 317.9C368.3 375.5 294.3 416 208 416C93.1 416 0 344.4 0 256C0 219 16.5 185 44 157.8C28.7 127.1 6.7 103.3 6.3 102.9C0 96.2000000000001 -1.8 86.4 1.9 77.9C5.5 69.4 13.9 63.9 23.1 63.9C76.6 63.9 119.8 84.1 148.3 102.7000000000001C157.5 100.6 167 99.0000000000001 176.7 97.8000000000001C208.1 40.4 281.8 0 368 0C388.8 0 408.8 2.4 427.8 6.8C456.3 -11.7 499.4 -32 553 -32C562.2 -32 570.5 -26.5 574.2 -18C577.8000000000001 -9.5 576.1 0.3 569.8000000000001 7C569.4000000000001 7.3 547.3000000000001 31.1 532.0000000000001 61.8zM139.2 154.1L122.1 143C108 133.9 93.6 126.7 79 121.6C81.7 126.3 84.4 131.3 87 136.4L102.5 167.5000000000001L77.7 192C64.2 205.4 48 227.3 48 256C48 316.7 121.3 368 208 368S368 316.7 368 256S294.7 144 208 144C191.5 144 175 145.9 159 149.6L139.2 154.1zM498.3 96L473.6 71.6L489.1 40.5C491.7 35.4 494.4 30.4 497.1 25.7C482.5 30.8 468.1 38 454 47.1L436.9 58.2L417 53.6C401 49.9 384.5 47.9999999999999 368 47.9999999999999C314 47.9999999999999 265.8 68.1 236.7 97.6999999999999C338 108.5 416 175.1 416 256C416 259.4 415.6 262.7 415.3 266C479.7 251.5 528 209.2 528 160C528 131.3 511.8 109.4 498.3 96z" />
    <glyph glyph-name="compass"
      unicode="&#xF14E;"
      horiz-adv-x="512" d=" M256 440C119.033 440 8 328.967 8 192S119.033 -56 256 -56S504 55.033 504 192S392.967 440 256 440zM256 -8C145.468 -8 56 81.451 56 192C56 302.531 145.451 392 256 392C366.532 392 456 302.549 456 192C456 81.468 366.549 -8 256 -8zM347.326 304.131L313.9670000000001 166.352A24.005 24.005 0 0 0 307.1950000000001 154.623L204.5550000000001 56.844C187.4510000000001 40.551 158.9950000000001 56.41 164.6750000000001 79.868L198.0340000000001 217.647A23.997 23.997 0 0 0 204.8060000000001 229.376L307.4480000000001 327.155C324.7330000000001 343.625 352.9420000000001 327.33 347.3260000000001 304.131zM256 224C238.327 224 224 209.673 224 192S238.327 160 256 160S288 174.327 288 192S273.673 224 256 224z" />
    <glyph glyph-name="copy"
      unicode="&#xF0C5;"
      horiz-adv-x="448" d=" M433.941 382.059L382.059 433.941A48 48 0 0 1 348.118 448H176C149.49 448 128 426.51 128 400V352H48C21.49 352 0 330.51 0 304V-16C0 -42.51 21.49 -64 48 -64H272C298.51 -64 320 -42.51 320 -16V32H400C426.51 32 448 53.49 448 80V348.118A48 48 0 0 1 433.941 382.059zM266 -16H54A6 6 0 0 0 48 -10V298A6 6 0 0 0 54 304H128V80C128 53.49 149.49 32 176 32H272V-10A6 6 0 0 0 266 -16zM394 80H182A6 6 0 0 0 176 86V394A6 6 0 0 0 182 400H288V312C288 298.745 298.745 288 312 288H400V86A6 6 0 0 0 394 80zM400 336H336V400H345.632C347.223 400 348.749 399.368 349.875 398.243L398.243 349.875A6 6 0 0 0 400 345.632V336z" />
    <glyph glyph-name="copyright"
      unicode="&#xF1F9;"
      horiz-adv-x="512" d=" M256 440C119.033 440 8 328.967 8 192S119.033 -56 256 -56S504 55.033 504 192S392.967 440 256 440zM256 -8C145.468 -8 56 81.451 56 192C56 302.531 145.451 392 256 392C366.532 392 456 302.549 456 192C456 81.468 366.549 -8 256 -8zM363.351 93.064C353.737 83.352 317.8210000000001 51.668 259.286 51.668C176.856 51.668 118.802 113.093 118.802 193.235C118.802 272.387 179.077 332.636 258.564 332.636C314.095 332.636 347.302 306.016 356.157 297.857A11.965 11.965 0 0 0 358.093 282.535L339.938 254.422C336.097 248.472 327.972 247.14 322.439 251.501C313.844 258.277 290.625 274.039 260.731 274.039C212.428 274.039 182.815 238.709 182.815 193.957C182.815 152.368 209.703 110.265 261.092 110.265C293.749 110.265 317.935 129.304 326.818 137.49C332.088 142.347 340.414 141.529 344.638 135.752L364.503 108.582A11.947000000000001 11.947000000000001 0 0 0 363.351 93.064z" />
    <glyph glyph-name="credit-card"
      unicode="&#xF09D;"
      horiz-adv-x="576" d=" M527.9 416H48.1C21.5 416 0 394.5 0 368V16C0 -10.5 21.5 -32 48.1 -32H527.9C554.5 -32 576 -10.5 576 16V368C576 394.5 554.5 416 527.9 416zM54.1 368H521.9C525.1999999999999 368 527.9 365.3 527.9 362V320H48.1V362C48.1 365.3 50.8 368 54.1 368zM521.9 16H54.1C50.8 16 48.1 18.7 48.1 22V192H527.9V22C527.9 18.7 525.1999999999999 16 521.9 16zM192 116V76C192 69.4 186.6 64 180 64H108C101.4 64 96 69.4 96 76V116C96 122.6 101.4 128 108 128H180C186.6 128 192 122.6 192 116zM384 116V76C384 69.4 378.6 64 372 64H236C229.4 64 224 69.4 224 76V116C224 122.6 229.4 128 236 128H372C378.6 128 384 122.6 384 116z" />
    <glyph glyph-name="dot-circle"
      unicode="&#xF192;"
      horiz-adv-x="512" d=" M256 392C366.532 392 456 302.549 456 192C456 81.468 366.549 -8 256 -8C145.468 -8 56 81.451 56 192C56 302.532 145.451 392 256 392M256 440C119.033 440 8 328.967 8 192S119.033 -56 256 -56S504 55.033 504 192S392.967 440 256 440zM256 272C211.817 272 176 236.183 176 192S211.817 112 256 112S336 147.817 336 192S300.183 272 256 272z" />
    <glyph glyph-name="edit"
      unicode="&#xF044;"
      horiz-adv-x="576" d=" M402.3 103.1L434.3 135.1C439.3 140.1 448 136.6 448 129.4V-16C448 -42.5 426.5 -64 400 -64H48C21.5 -64 0 -42.5 0 -16V336C0 362.5 21.5 384 48 384H321.5C328.6 384 332.2 375.4 327.2 370.3L295.2 338.3C293.7 336.8 291.7 336 289.5 336H48V-16H400V97.5C400 99.6 400.8 101.6 402.3 103.1zM558.9 304.9000000000001L296.3 42.3L205.9 32.3C179.7 29.4 157.4 51.5 160.3 77.9L170.3 168.3000000000001L432.9 430.9C455.8 453.8 492.8 453.8 515.6 430.9L558.8000000000001 387.7C581.7 364.8 581.7 327.7 558.9000000000001 304.9zM460.1 274L402 332.1L216.2 146.2L208.9 80.9L274.2 88.2L460.1 274zM524.9 353.7L481.7 396.9C477.6 401 470.9 401 466.9 396.9L436 366L494.1 307.9L525 338.8C529 343 529 349.6 524.9 353.7000000000001z" />
    <glyph glyph-name="envelope-open"
      unicode="&#xF2B6;"
      horiz-adv-x="512" d=" M494.586 283.4840000000001C489.889 287.367 382.863 373.4340000000001 359.3350000000001 392.141C337.231 409.809 299.437 448 256 448C212.795 448 175.364 410.283 152.665 392.141C128.202 372.6910000000001 21.595 286.9460000000001 17.515 283.592A48.004000000000005 48.004000000000005 0 0 1 0 246.515V-16C0 -42.51 21.49 -64 48 -64H464C490.51 -64 512 -42.51 512 -16V246.491A48 48 0 0 1 494.586 283.4840000000001zM464 -10A6 6 0 0 0 458 -16H54A6 6 0 0 0 48 -10V243.653C48 245.466 48.816 247.179 50.226 248.318C66.096 261.132 159.019 335.872 182.59 354.611C200.755 369.12 232.398 400 256 400C279.693 400 311.857 368.631 329.41 354.611C352.983 335.87 445.913 261.118 461.776 248.295A5.99 5.99 0 0 0 463.9999999999999 243.632V-10zM432.009 177.704C436.2580000000001 172.545 435.474 164.909 430.264 160.723C401.289 137.44 370.99 113.126 359.3350000000001 103.86C336.636 85.717 299.205 48 256 48C212.548 48 174.713 86.237 152.665 103.86C141.386 112.827 110.921 137.273 81.738 160.725C76.528 164.912 75.745 172.547 79.993 177.706L95.251 196.234C99.429 201.307 106.908 202.077 112.03 197.96C140.648 174.959 170.596 150.925 182.59 141.389C200.143 127.369 232.307 96 256 96C279.602 96 311.246 126.88 329.41 141.389C341.404 150.924 371.354 174.959 399.973 197.957C405.095 202.073 412.574 201.303 416.751 196.23L432.009 177.704z" />
    <glyph glyph-name="envelope"
      unicode="&#xF0E0;"
      horiz-adv-x="512" d=" M464 384H48C21.49 384 0 362.51 0 336V48C0 21.49 21.49 0 48 0H464C490.51 0 512 21.49 512 48V336C512 362.51 490.51 384 464 384zM464 336V295.195C441.578 276.936 405.832 248.544 329.413 188.705C312.572 175.458 279.212 143.633 256 144.004C232.792 143.629 199.421 175.463 182.587 188.705C106.18 248.535 70.425 276.933 48 295.195V336H464zM48 48V233.602C70.914 215.351 103.409 189.74 152.938 150.956C174.795 133.751 213.072 95.77 256 96.001C298.717 95.77 336.509 133.2000000000001 359.053 150.948C408.581 189.7310000000001 441.085 215.3490000000001 464 233.6010000000001V48H48z" />
    <glyph glyph-name="eye-slash"
      unicode="&#xF070;"
      horiz-adv-x="576" d=" M272.702 88.861C192.219 97.872 136.49 175.747 155.772 255.903L272.702 88.861zM288 56C185.444 56 95.908 110.701 48 192C69.755 228.917 100.1 260.342 136.344 283.658L108.803 323.0010000000001C67.001 295.766 31.921 259.259 6.646 216.369A47.999 47.999 0 0 1 6.646 167.63C63.004 71.994 168.14 8 288 8A332.89 332.89 0 0 1 327.648 10.367L295.627 56.111A284.16 284.16 0 0 0 288 56zM569.354 167.631C536.1220000000001 111.237 485.933 65.889 425.8000000000001 38.139L473.9160000000001 -30.601C477.717 -36.03 476.3960000000001 -43.513 470.967 -47.313L450.23 -61.83C444.8010000000001 -65.631 437.3180000000001 -64.3099999999999 433.5180000000001 -58.881L102.084 414.601C98.283 420.03 99.604 427.513 105.033 431.313L125.77 445.83C131.199 449.631 138.682 448.31 142.482 442.881L198.008 363.556C226.612 371.657 256.808 376 288 376C407.86 376 512.996 312.006 569.354 216.369A48.00200000000001 48.00200000000001 0 0 0 569.354 167.631zM528 192C483.843 266.933 404.323 319.27 311.838 327.007C302.042 316.9220000000001 296 303.17 296 288C296 257.072 321.072 232 352 232S408 257.072 408 288L407.999 288.0420000000001C438.6310000000001 230.765 424.738 157.7820000000001 371.0710000000001 116.323L397.766 78.188C452.626 101.449 498.308 141.614 528 192z" />
    <glyph glyph-name="eye"
      unicode="&#xF06E;"
      horiz-adv-x="576" d=" M569.354 216.369C512.97 312.051 407.81 376 288 376C168.14 376 63.004 312.006 6.646 216.369A47.999 47.999 0 0 1 6.646 167.63C63.031 71.949 168.19 8 288 8C407.86 8 512.996 71.994 569.354 167.631A47.997 47.997 0 0 1 569.354 216.369zM288 56C185.444 56 95.909 110.701 48 192C92.157 266.933 171.677 319.27 264.1620000000001 327.007C273.9580000000001 316.9220000000001 280 303.17 280 288C280 257.072 254.928 232 224 232S168 257.072 168 288L168.001 288.0420000000001C157.794 268.957 152 247.156 152 224C152 148.889 212.889 88 288 88S424 148.889 424 224C424 255.031 413.6 283.629 396.105 306.515C451.704 283.362 498.009 242.894 528 192C480.092 110.701 390.5560000000001 56 288 56z" />
    <glyph glyph-name="file-alt"
      unicode="&#xF15C;"
      horiz-adv-x="384" d=" M288 200V172C288 165.4 282.6 160 276 160H108C101.4 160 96 165.4 96 172V200C96 206.6 101.4 212 108 212H276C282.6 212 288 206.6 288 200zM276 128H108C101.4 128 96 122.6 96 116V88C96 81.4 101.4 76 108 76H276C282.6 76 288 81.4 288 88V116C288 122.6 282.6 128 276 128zM384 316.1V-16C384 -42.5 362.5 -64 336 -64H48C21.5 -64 0 -42.5 0 -16V400C0 426.5 21.5 448 48 448H252.1C264.8 448 277 442.9 286 433.9L369.9 350C378.9 341.1 384 328.8 384 316.1zM256 396.1V320H332.1L256 396.1zM336 -16V272H232C218.7 272 208 282.7 208 296V400H48V-16H336z" />
    <glyph glyph-name="file-archive"
      unicode="&#xF1C6;"
      horiz-adv-x="384" d=" M369.941 350.059L286.059 433.9410000000001A48 48 0 0 1 252.118 448H48C21.49 448 0 426.51 0 400V-16C0 -42.51 21.49 -64 48 -64H336C362.51 -64 384 -42.51 384 -16V316.118A48 48 0 0 1 369.941 350.059zM256 396.118L332.118 320H256V396.118zM336 -16H48V400H127.714V384H159.714V400H208V296C208 282.745 218.745 272 232 272H336V-16zM192.27 352H160.27V384H192.27V352zM160.27 352V320H128.27V352H160.27zM160.27 288V256H128.27V288H160.27zM192.27 288H160.27V320H192.27V288zM194.179 182.322A12 12 0 0 1 182.406 192H160.27V224H128.27V192L108.58 94.894C101.989 62.389 126.834 32 160 32C193.052 32 217.871 62.192 211.476 94.62L194.179 182.322zM160.27 57.927C142.352 57.927 127.826 70.032 127.826 84.963C127.826 99.895 142.351 111.999 160.27 111.999S192.714 99.894 192.714 84.963C192.714 70.032 178.188 57.927 160.27 57.927zM192.27 224H160.27V256H192.27V224z" />
    <glyph glyph-name="file-audio"
      unicode="&#xF1C7;"
      horiz-adv-x="384" d=" M369.941 350.059L286.059 433.9410000000001A48 48 0 0 1 252.118 448H48C21.49 448 0 426.51 0 400V-16C0 -42.51 21.49 -64 48 -64H336C362.51 -64 384 -42.51 384 -16V316.118A48 48 0 0 1 369.941 350.059zM332.118 320H256V396.118L332.118 320zM48 -16V400H208V296C208 282.745 218.745 272 232 272H336V-16H48zM192 60.024C192 49.333 179.074 43.979 171.515 51.539L136 87.514H108C101.373 87.514 96 92.887 96 99.514V155.514C96 162.141 101.373 167.514 108 167.514H136L171.515 204.461C179.075 212.021 192 206.667 192 195.976V60.024zM233.201 107.154C242.252 116.451 242.261 131.287 233.202 140.593C211.053 163.345 245.437 196.839 267.597 174.074C294.795 146.134 294.809 101.63 267.598 73.673C245.805 51.287 210.651 83.988 233.201 107.154z" />
    <glyph glyph-name="file-code"
      unicode="&#xF1C9;"
      horiz-adv-x="384" d=" M369.941 350.059L286.059 433.9410000000001A48 48 0 0 1 252.118 448H48C21.49 448 0 426.51 0 400V-16C0 -42.51 21.49 -64 48 -64H336C362.51 -64 384 -42.51 384 -16V316.118A48 48 0 0 1 369.941 350.059zM332.118 320H256V396.118L332.118 320zM48 -16V400H208V296C208 282.745 218.745 272 232 272H336V-16H48zM149.677 99.115L116.854 128L149.676 156.885A8.793 8.793 0 0 1 150.281 169.509L132.878 188.073C129.494 191.686 123.914 191.735 120.44 188.4740000000001L62.78 134.42C59.077 130.946 59.076 125.053 62.781 121.5800000000001L120.44 67.525A8.738 8.738 0 0 1 126.452 65.1440000000001A8.746 8.746 0 0 1 132.879 67.9260000000001L150.282 86.489A8.795 8.795 0 0 1 149.677 99.115zM233.961 226.965L209.56 234.049A8.796 8.796 0 0 1 198.655 228.051L144.04 39.939C142.687 35.279 145.378 30.387 150.038 29.0340000000001L174.441 21.95C179.121 20.595 183.998 23.304 185.346 27.948L239.958 216.06C241.312 220.72 238.621 225.612 233.961 226.9650000000001zM321.219 134.42L263.561 188.475C260.035 191.7820000000001 254.462 191.6400000000001 251.122 188.074L233.719 169.511A8.795 8.795 0 0 1 234.324 156.886L267.146 128L234.324 99.115A8.793 8.793 0 0 1 233.719 86.491L251.122 67.927A8.797 8.797 0 0 1 263.5610000000001 67.526H263.5600000000001L321.2200000000001 121.581C324.923 125.054 324.923 130.947 321.2190000000001 134.42z" />
    <glyph glyph-name="file-excel"
      unicode="&#xF1C3;"
      horiz-adv-x="384" d=" M369.9 350.1L286 434C277 443 264.8 448.1 252.1 448.1H48C21.5 448 0 426.5 0 400V-16C0 -42.5 21.5 -64 48 -64H336C362.5 -64 384 -42.5 384 -16V316.1C384 328.8 378.9 341.1 369.9 350.1zM332.1 320H256V396.1L332.1 320zM48 -16V400H208V296C208 282.7 218.7 272 232 272H336V-16H48zM260 224H231.2C226.8 224 222.8 221.6 220.7 217.7C202.7 184.6 198.5 175.3 192.1 160C178.2 189.1 185.2 177.3 163.5 217.7C161.4 221.6 157.3 224 152.9 224H124C114.7 224 109 214 113.6 206L159.9 128L113.6 50C108.9 42 114.7 32 124 32H152.9C157.3 32 161.3 34.4 163.4 38.3C185.1 78.3 186.4 83.3 192 96C206.9 65.8 197.9 80.1 220.6 38.3C222.7 34.4 226.8 32 231.2 32H260C269.3 32 275 42 270.4 50L224 128C224.7 129.1 254.3 178.5 270.3 206C275 214 269.2 224 260 224z" />
    <glyph glyph-name="file-image"
      unicode="&#xF1C5;"
      horiz-adv-x="384" d=" M369.9 350.1L286 434C277 443 264.8 448.1 252.1 448.1H48C21.5 448 0 426.5 0 400V-16C0 -42.5 21.5 -64 48 -64H336C362.5 -64 384 -42.5 384 -16V316.1C384 328.8 378.9 341.1 369.9 350.1zM332.1 320H256V396.1L332.1 320zM48 -16V400H208V296C208 282.7 218.7 272 232 272H336V-16H48zM80 32H304V160L280.5 183.5C275.8 188.2 268.2 188.2 263.5 183.5L176 96L136.5 135.5C131.8 140.2 124.2 140.2 119.5 135.5L80 96V32zM128 272C101.5 272 80 250.5 80 224S101.5 176 128 176S176 197.5 176 224S154.5 272 128 272z" />
    <glyph glyph-name="file-pdf"
      unicode="&#xF1C1;"
      horiz-adv-x="384" d=" M369.9 350.1L286 434C277 443 264.8 448.1 252.1 448.1H48C21.5 448 0 426.5 0 400V-16C0 -42.5 21.5 -64 48 -64H336C362.5 -64 384 -42.5 384 -16V316.1C384 328.8 378.9 341.1 369.9 350.1zM332.1 320H256V396.1L332.1 320zM48 -16V400H208V296C208 282.7 218.7 272 232 272H336V-16H48zM298.2 127.7C286 139.7 251.2 136.4 233.8 134.2C216.6 144.7 205.1 159.2 197 180.5C200.9 196.6 207.1 221.1 202.4 236.5C198.2 262.7 164.6 260.1 159.8 242.4C155.4 226.3 159.4 203.9 166.8 175.3C156.8 151.4 141.9 119.3 131.4 100.9C111.4 90.6 84.4 74.7 80.4 54.7C77.1 38.9 106.4 -0.5 156.5 85.9C178.9 93.3 203.3 102.4 224.9 106C243.8 95.8 265.9 89 280.7 89C306.2 89 308.7 117.2 298.2 127.7zM100.1 49.9C105.2 63.6 124.6 79.4 130.5 84.9C111.5 54.6 100.1 49.2 100.1 49.9zM181.7 240.5C189.1 240.5 188.4 208.4 183.5 199.7C179.1 213.6 179.2 240.5 181.7 240.5zM157.3 103.9C167 120.8 175.3 140.9 182 158.6C190.3 143.5 200.9 131.4 212.1 123.1C191.3 118.8 173.2 109.9999999999999 157.3 103.9zM288.9 108.9S283.9 102.9 251.6 116.7C286.7 119.3 292.5 111.3 288.9 108.9z" />
    <glyph glyph-name="file-powerpoint"
      unicode="&#xF1C4;"
      horiz-adv-x="384" d=" M369.9 350.1L286 434C277 443 264.8 448.1 252.1 448.1H48C21.5 448 0 426.5 0 400V-16C0 -42.5 21.5 -64 48 -64H336C362.5 -64 384 -42.5 384 -16V316.1C384 328.8 378.9 341.1 369.9 350.1zM332.1 320H256V396.1L332.1 320zM48 -16V400H208V296C208 282.7 218.7 272 232 272H336V-16H48zM120 44V212C120 218.6 125.4 224 132 224H201.2C237.9 224 264 197 264 157.7C264 83.4 195.3 91.2 168.5 91.2V44C168.5 37.4 163.1 32 156.5 32H132C125.4 32 120 37.4 120 44zM168.5 131.4H191.5C199.4 131.4 205.4 133.8 209.6 138.6C218.1 148.4 218 167.1 209.7 176.4C205.6 181 199.8 183.4 192.3 183.4H168.4V131.4z" />
    <glyph glyph-name="file-video"
      unicode="&#xF1C8;"
      horiz-adv-x="384" d=" M369.941 350.059L286.059 433.9410000000001A48 48 0 0 1 252.118 448H48C21.49 448 0 426.51 0 400V-16C0 -42.51 21.49 -64 48 -64H336C362.51 -64 384 -42.51 384 -16V316.118A48 48 0 0 1 369.941 350.059zM332.118 320H256V396.118L332.118 320zM48 -16V400H208V296C208 282.745 218.745 272 232 272H336V-16H48zM276.687 195.303L224 142.626V180C224 191.046 215.046 200 204 200H100C88.954 200 80 191.046 80 180V76C80 64.954 88.954 56 100 56H204C215.046 56 224 64.954 224 76V113.374L276.687 60.7000000000001C286.704 50.682 304 57.72 304 72.014V183.989C304 198.3 286.691 205.308 276.687 195.303z" />
    <glyph glyph-name="file-word"
      unicode="&#xF1C2;"
      horiz-adv-x="384" d=" M369.9 350.1L286 434C277 443 264.8 448.1 252.1 448.1H48C21.5 448 0 426.5 0 400V-16C0 -42.5 21.5 -64 48 -64H336C362.5 -64 384 -42.5 384 -16V316.1C384 328.8 378.9 341.1 369.9 350.1zM332.1 320H256V396.1L332.1 320zM48 -16V400H208V296C208 282.7 218.7 272 232 272H336V-16H48zM268.1 192C262.4000000000001 192 257.5 188 256.4000000000001 182.5C235.8000000000001 84.8 236.0000000000001 87.1 235.4000000000001 79C235.2000000000001 80.2 235.0000000000001 81.6 234.7000000000001 83.3C233.9000000000001 88.4 235.0000000000001 83.1 211.1000000000001 182.8C209.8000000000001 188.2 205.0000000000001 192 199.4000000000001 192H186.1000000000001C180.6000000000001 192 175.8000000000001 188.2 174.4000000000001 182.9C150.0000000000001 83.9 150.4000000000001 86.7 149.6000000000001 79.2C149.5000000000001 80.3 149.4000000000001 81.7 149.1000000000001 83.4C148.4000000000001 88.6 135.0000000000001 156.7 130.0000000000001 182.4C128.9000000000001 188 124.0000000000001 192.1 118.2000000000001 192.1H101.4000000000001C93.6000000000001 192.1 87.9000000000001 184.8 89.7000000000001 177.3C97.7000000000001 144.6999999999999 116.4000000000001 67.8 122.9000000000001 41.3C124.2000000000001 35.9 129.0000000000001 32.1999999999999 134.6000000000001 32.1999999999999H159.8000000000001C165.3000000000001 32.1999999999999 170.1000000000001 35.8999999999999 171.4 41.3L189.3000000000001 112.6999999999999C190.8000000000001 118.8999999999999 191.8000000000001 124.6999999999999 192.3000000000001 130L195.2000000000001 112.6999999999999C195.3000000000001 112.3 207.8000000000001 62.1999999999999 213.1000000000001 41.3C214.4000000000001 35.9999999999999 219.2000000000001 32.1999999999999 224.7000000000001 32.1999999999999H249.4000000000001C254.9000000000001 32.1999999999999 259.7000000000001 35.8999999999999 261.0000000000001 41.3C281.8000000000001 123.1999999999999 291.2000000000001 160.3 295.5000000000001 177.3C297.4000000000001 184.9 291.7000000000001 192.2 283.9000000000001 192.2H268.1z" />
    <glyph glyph-name="file"
      unicode="&#xF15B;"
      horiz-adv-x="384" d=" M369.9 350.1L286 434C277 443 264.8 448.1 252.1 448.1H48C21.5 448 0 426.5 0 400V-16C0 -42.5 21.5 -64 48 -64H336C362.5 -64 384 -42.5 384 -16V316.1C384 328.8 378.9 341.1 369.9 350.1zM332.1 320H256V396.1L332.1 320zM48 -16V400H208V296C208 282.7 218.7 272 232 272H336V-16H48z" />
    <glyph glyph-name="flag"
      unicode="&#xF024;"
      horiz-adv-x="512" d=" M336.174 368C287.042 368 242.869 400 174.261 400C142.96 400 115.958 393.5180000000001 93.54 384.832A48.04 48.04 0 0 1 95.682 405.559C93.067 428.425 74.167 446.406 51.201 447.896C23.242 449.71 0 427.569 0 400C0 382.236 9.657 366.738 24 358.438V-48C24 -56.837 31.163 -64 40 -64H56C64.837 -64 72 -56.837 72 -48V35.443C109.869 52.72 143.259 64 199.826 64C248.958 64 293.131 32 361.7390000000001 32C420.218 32 463.711 54.617 490.287 71.981C503.846 80.839 512 95.949 512 112.145V352.063C512 386.522 476.736 409.831 445.096 396.18C409.193 380.6910000000001 371.641 368 336.174 368zM464 112C442.217 96.588 403.176 80 361.7390000000001 80C301.7940000000001 80 259.737 112 199.826 112C156.465 112 103.447 102.597 72 88V320C93.784 335.4120000000001 132.824 352 174.261 352C234.206 352 276.2630000000001 320 336.1740000000001 320C379.4450000000001 320 432.4940000000001 337.366 464 352V112z" />
    <glyph glyph-name="folder-open"
      unicode="&#xF07C;"
      horiz-adv-x="576" d=" M527.943 224H480V272C480 298.51 458.51 320 432 320H272L208 384H48C21.49 384 0 362.51 0 336V48C0 21.49 21.49 0 48 0H448A48.001 48.001 0 0 1 488.704 22.56L568.646 150.56C588.5939999999999 182.477 565.608 224 527.943 224zM54 336H188.118L252.118 272H426A6 6 0 0 0 432 266V224H152A48 48 0 0 1 110.902 200.798L48 96.551V330.007A5.993 5.993 0 0 0 54 336zM448 48H72L149.234 176H528L448 48z" />
    <glyph glyph-name="folder"
      unicode="&#xF07B;"
      horiz-adv-x="512" d=" M464 320H272L208 384H48C21.49 384 0 362.51 0 336V48C0 21.49 21.49 0 48 0H464C490.51 0 512 21.49 512 48V272C512 298.51 490.51 320 464 320zM458 48H54C50.686 48 48 50.678 48 53.992V330.008A5.993 5.993 0 0 0 54 336H188.118L252.118 272H458A6 6 0 0 0 464 266V54A6 6 0 0 0 458 48z" />
    <glyph glyph-name="frown"
      unicode="&#xF119;"
      horiz-adv-x="496" d=" M248 440C111 440 0 329 0 192S111 -56 248 -56S496 55 496 192S385 440 248 440zM248 -8C137.7 -8 48 81.7 48 192S137.7 392 248 392S448 302.3 448 192S358.3 -8 248 -8zM168 208C185.7 208 200 222.3 200 240S185.7 272 168 272S136 257.7 136 240S150.3 208 168 208zM328 272C310.3 272 296 257.7 296 240S310.3 208 328 208S360 222.3 360 240S345.7 272 328 272zM248 144C207.8 144 170 126.3 144.2 95.4C135.7 85.2 137.1 70.1 147.3 61.6C157.5 53.1 172.6 54.4999999999999 181.1 64.7C197.7 84.6 222.1 96.1 248 96.1S298.3 84.7 314.9 64.7C319.7 59 326.5 56.1 333.4 56.1C338.8 56.1 344.3 57.9 348.8 61.7C359 70.2 360.3 85.3 351.9 95.5C326 126.3 288.2 144 248 144z" />
    <glyph glyph-name="futbol"
      unicode="&#xF1E3;"
      horiz-adv-x="496" d=" M483.8 268.6C449.8 373.4 352.6 440 248.1 440C222.7 440 196.9 436.1 171.4 427.8C41.2 385.5 -30.1 245.6 12.2 115.4C46.2 10.6 143.4 -56 247.9 -56C273.3 -56 299.1 -52.1 324.6 -43.8C454.8 -1.5 526.1 138.4 483.8 268.6zM409.3 74.9L357.1 68.5L313.4000000000001 129.4L337.8 204.6L408.9 226.7L447.8 190.3C447.6 159.6 440.4 129.1999999999999 426.1 101.1C421.4 91.8 415.4 83.3 409.3 74.9zM409.3 310.3L398.9000000000001 257.2L328.2000000000001 235.2L264.0000000000001 281.7V355.5L311.4000000000001 381.7C350.6 368.7 384.8000000000001 343.7 409.3000000000001 310.3zM184.9 381.6L232 355.5V281.7L167.8 235.2L97.2 257.2L87.1 309.7C111.4 343.1 145 368.3 184.9 381.6zM139 68.5L85.9 75C71.5 95.1 48.6 134.6 48.1 190.3L87.1 226.7L158.2 204.5L182.5 130.2000000000001L139 68.5000000000001zM187.2 1.5L164.8 49.6L208.4 111.3H287L331.3 49.6L308.9000000000001 1.5C302.7000000000001 -0.3 251.3000000000001 -18.9 187.2000000000001 1.5z" />
    <glyph glyph-name="gem"
      unicode="&#xF3A5;"
      horiz-adv-x="576" d=" M464 448H112C108 448 104.2 446 102 442.6L2 295.4C-0.9 291 -0.6 285.2000000000001 2.7 281.2000000000001L278.7 -59.6C283.5 -65.5 292.5 -65.5 297.3 -59.6L573.3 281.2C576.5999999999999 285.3 576.9 291 574 295.4L474.1 442.6C471.8 446 468.1 448 464 448zM444.7 400L508 304H439.6L387.9000000000001 400H444.7000000000001zM242.6 400H333.3L385 304H191L242.6 400zM131.3 400H188.1L136.4 304H68L131.3 400zM88.3 256H139.7L208 96L88.3 256zM191.2 256H384.8L288 12.7L191.2 256zM368 96L436.2 256H487.6L368 96z" />
    <glyph glyph-name="hand-lizard"
      unicode="&#xF258;"
      horiz-adv-x="576" d=" M556.686 157.458L410.328 383.171C397.001 403.728 374.417 416 349.917 416H56C25.121 416 0 390.878 0 360V352C0 307.8880000000001 35.888 272 80 272H276.0420000000001L257.7090000000001 224H144C95.477 224 56 184.523 56 136C56 105.121 81.121 80 112 80H243.552C246.539 80 249.466 79.451 252.249 78.369L352 39.582V-32H576V92.171C576 115.396 569.321 137.972 556.686 157.458zM528 16H400V39.582C400 59.53 387.986 77.09 369.396 84.318L269.645 123.106A71.733 71.733 0 0 1 243.552 128H112C107.589 128 104 131.589 104 136C104 158.056 121.944 176 144 176H257.709C277.476 176 295.495 188.407 302.549 206.873L327.101 271.154C336.097 294.707 318.673 320 293.471 320H80C62.355 320 48 334.355 48 352V360C48 364.411 51.589 368 56 368H349.917C358.083 368 365.61 363.91 370.054 357.058L516.412 131.343A71.84 71.84 0 0 0 528 92.171V16z" />
    <glyph glyph-name="hand-paper"
      unicode="&#xF256;"
      horiz-adv-x="448" d=" M372.57 335.359V346.184C372.57 389.796 332.05 422.875 289.531 411.73C263.902 461.23 195.441 459.18 171.549 410.983C130.269 421.544 89.144 390.055 89.144 346V219.87C69.191 227.297 45.836 224.938 27.061 210.999C-2.294 189.203 -8.733 147.666 12.511 117.846L132.48 -50.569A32 32 0 0 1 158.542 -64.001H381.439C396.343 -64.001 409.274 -53.712 412.621 -39.188L442.805 91.77A203.637 203.637 0 0 1 448 137.436V269C448 309.62 412.477 340.992 372.57 335.359zM399.997 137.437C399.997 125.706 398.663 113.968 396.0320000000001 102.551L368.707 -16H166.787L51.591 145.697C37.152 165.967 66.614 188.473 80.985 168.302L108.113 130.223C117.108 117.597 137.144 123.936 137.144 139.506V346C137.144 371.645 173.715 370.81 173.715 345.309V192C173.715 183.163 180.878 176 189.715 176H196.571C205.408 176 212.571 183.163 212.571 192V381C212.571 406.663 249.142 405.81 249.142 380.309V192C249.142 183.163 256.305 176 265.142 176H271.998C280.835 176 287.998 183.163 287.998 192V346.875C287.998 372.5470000000001 324.568 371.685 324.568 346.184V192C324.568 183.163 331.731 176 340.568 176H347.425C356.262 176 363.425 183.163 363.425 192V268.309C363.425 294.551 399.995 293.949 399.995 269V137.437z" />
    <glyph glyph-name="hand-peace"
      unicode="&#xF25B;"
      horiz-adv-x="448" d=" M362.146 256.024C348.4360000000001 277.673 323.385 290.04 297.14 286.365V374C297.14 414.804 264.329 448 223.999 448C183.669 448 150.859 414.804 150.859 374L160 280L141.321 358.85C126.578 397.157 83.85 415.89 46.209 400.7920000000001C8.735 385.762 -9.571 343.0370000000001 5.008 305.15L60.765 160.223C30.208 135.267 16.771 102.414 36.032 68.005L90.885 -29.994C102.625 -50.97 124.73 -64 148.575 -64H354.277C385.021 -64 411.835 -42.56 418.832 -12.203L446.259 106.7960000000001A67.801 67.801 0 0 1 447.988 121.999L448 192C448 236.956 404.737 269.343 362.146 256.024zM399.987 122C399.987 120.512 399.8180000000001 119.023 399.485 117.577L372.058 -1.424C370.08 -10.006 362.768 -16 354.276 -16H148.575C142.089 -16 136.033 -12.379 132.77 -6.551L77.916 91.449C73.359 99.59 75.297 110.117 82.424 115.937L109.071 137.701A16 16 0 0 1 113.883 155.84L49.793 322.389C37.226 355.044 84.37 373.163 96.51 341.611L156.294 186.254A16 16 0 0 1 171.227 176H182.859C191.696 176 198.859 183.163 198.859 192V374C198.859 408.375 249.14 408.43 249.14 374V192C249.14 183.163 256.303 176 265.14 176H271.996C280.833 176 287.996 183.163 287.996 192V220C287.996 245.122 324.563 245.159 324.563 220V192C324.563 183.163 331.726 176 340.563 176H347.419C356.256 176 363.419 183.163 363.419 192C363.419 217.12 399.986 217.16 399.986 192V122z" />
    <glyph glyph-name="hand-point-down"
      unicode="&#xF0A7;"
      horiz-adv-x="448" d=" M188.8 -64C234.416 -64 272 -26.235 272 19.2V54.847A93.148 93.148 0 0 1 294.064 62.776C316.0700000000001 60.269 339.0420000000001 66.2789999999999 356.855 78.761C409.342 79.9 448 116.159 448 178.701V200C448 260.063 408 298.512 408 327.2V329.879C412.952 335.626 416 343.415 416 351.999V416C416 433.673 403.106 448 387.2 448H156.8C140.894 448 128 433.673 128 416V352C128 343.416 131.048 335.627 136 329.88V327.201C136 320.237 129.807 312.339 112.332 297.0180000000001L112.184 296.889L112.038 296.7580000000001C102.101 287.9020000000001 91.197 278.642 78.785 270.9070000000001C48.537 252.202 0 240.514 0 195.2C0 138.272 35.286 103.2 83.2 103.2C91.226 103.2 98.689 104.014 105.6 105.376V19.2C105.6 -25.899 143.701 -64 188.8 -64zM188.8 -16C170.1 -16 153.6 0.775 153.6 19.2V177.6C136.275 177.6 118.4 151.2000000000001 83.2 151.2000000000001C56.8 151.2000000000001 48 171.8250000000001 48 195.2000000000001C48 203.9940000000001 80.712 215.6450000000001 104.1 230.1260000000001C118.675 239.2000000000001 131.325 249.6500000000001 143.975 260.9250000000001C162.349 277.0340000000001 180.608 294.761 183.571 320.0000000000001H360.3230000000001C364.087 277.2100000000001 400 245.491 400 200V178.701C400 138.177 377.803 121.577 338.675 128.1C330.6740000000001 113.488 304.6960000000001 103.949 285.05 115.175C266.825 95.81 238.669 97.388 224 110.225V19.2C224 0.225 207.775 -16 188.8 -16zM328 384C328 397.255 338.745 408 352 408S376 397.255 376 384S365.255 360 352 360S328 370.745 328 384z" />
    <glyph glyph-name="hand-point-left"
      unicode="&#xF0A5;"
      horiz-adv-x="512" d=" M0 227.2C0 181.584 37.765 144 83.2 144H118.847A93.148 93.148 0 0 1 126.776 121.936C124.269 99.93 130.279 76.958 142.761 59.145C143.9 6.658 180.159 -32 242.701 -32H264C324.063 -32 362.512 8 391.2 8H393.879C399.626 3.048 407.415 0 415.999 0H479.999C497.672 0 511.999 12.894 511.999 28.8V259.2C511.999 275.106 497.672 288 479.999 288H415.999C407.415 288 399.626 284.952 393.879 280H391.2C384.236 280 376.338 286.193 361.017 303.668L360.888 303.8160000000001L360.757 303.962C351.901 313.899 342.641 324.803 334.906 337.215C316.202 367.463 304.514 416 259.2 416C202.272 416 167.2 380.714 167.2 332.8C167.2 324.774 168.014 317.3110000000001 169.376 310.4H83.2C38.101 310.4 0 272.299 0 227.2zM48 227.2C48 245.9 64.775 262.4 83.2 262.4H241.6C241.6 279.725 215.2 297.6 215.2 332.8C215.2 359.2 235.825 368 259.2000000000001 368C267.9940000000001 368 279.6450000000001 335.288 294.1260000000001 311.9C303.2000000000001 297.325 313.6500000000001 284.675 324.925 272.025C341.034 253.651 358.761 235.392 384 232.429V55.677C341.21 51.913 309.491 16 264 16H242.701C202.177 16 185.577 38.197 192.1 77.325C177.488 85.326 167.949 111.304 179.175 130.95C159.81 149.175 161.388 177.331 174.225 192H83.2C64.225 192 48 208.225 48 227.2zM448 88C461.255 88 472 77.255 472 64S461.255 40 448 40S424 50.745 424 64S434.745 88 448 88z" />
    <glyph glyph-name="hand-point-right"
      unicode="&#xF0A4;"
      horiz-adv-x="512" d=" M428.8 310.4H342.623A115.52 115.52 0 0 1 344.799 332.8C344.799 380.714 309.727 416 252.799 416C207.485 416 195.797 367.463 177.092 337.216C169.357 324.803 160.098 313.899 151.241 303.963L151.11 303.817L150.981 303.6690000000001C135.662 286.193 127.764 280 120.8 280H118.121C112.374 284.952 104.585 288 96.001 288H32C14.327 288 0 275.106 0 259.2V28.8C0 12.894 14.327 0 32 0H96C104.584 0 112.373 3.048 118.12 8H120.799C149.487 8 187.936 -32 247.999 -32H269.298C331.8400000000001 -32 368.098 6.658 369.238 59.145C381.7200000000001 76.958 387.729 99.93 385.223 121.936A93.148 93.148 0 0 1 393.152 144H428.8C474.235 144 512 181.584 512 227.2C512 272.299 473.899 310.4 428.8 310.4zM428.8 192H337.774C350.611 177.331 352.189 149.175 332.824 130.95C344.051 111.304 334.511 85.326 319.899 77.325C326.423 38.197 309.823 16 269.299 16H248C202.509 16 170.79 51.913 128 55.676V232.429C153.239 235.393 170.966 253.651 187.075 272.025C198.35 284.675 208.8 297.3250000000001 217.874 311.9C232.355 335.288 244.006 368 252.8 368C276.175 368 296.8 359.2 296.8 332.8C296.8 297.6 270.4000000000001 279.725 270.4000000000001 262.4H428.8000000000001C447.2250000000001 262.4 464.0000000000001 245.9 464.0000000000001 227.2C464.0000000000001 208.225 447.7750000000001 192 428.8000000000001 192zM88 64C88 50.745 77.255 40 64 40S40 50.745 40 64S50.745 88 64 88S88 77.255 88 64z" />
    <glyph glyph-name="hand-point-up"
      unicode="&#xF0A6;"
      horiz-adv-x="448" d=" M105.6 364.8V278.623A115.52 115.52 0 0 1 83.2 280.799C35.286 280.799 0 245.727 0 188.799C0 143.485 48.537 131.797 78.784 113.092C91.197 105.357 102.101 96.098 112.037 87.241L112.183 87.11L112.331 86.981C129.807 71.662 136 63.764 136 56.8V54.121C131.048 48.374 128 40.585 128 32.001V-31.999C128 -49.672 140.894 -63.999 156.8 -63.999H387.2000000000001C403.1060000000001 -63.999 416.0000000000001 -49.672 416.0000000000001 -31.999V32.001C416.0000000000001 40.585 412.9520000000001 48.374 408.0000000000001 54.121V56.8C408.0000000000001 85.488 448.0000000000001 123.937 448.0000000000001 184V205.299C448.0000000000001 267.841 409.3420000000001 304.099 356.8550000000001 305.2390000000001C339.0420000000001 317.721 316.0700000000001 323.73 294.0640000000001 321.224A93.148 93.148 0 0 1 272 329.153V364.8C272 410.235 234.416 448 188.8 448C143.701 448 105.6 409.899 105.6 364.8zM224 364.8V273.774C238.669 286.611 266.825 288.189 285.05 268.824C304.6960000000001 280.0510000000001 330.6740000000001 270.511 338.675 255.899C377.803 262.423 400 245.823 400 205.299V184C400 138.509 364.087 106.79 360.324 64H183.571C180.607 89.239 162.349 106.966 143.975 123.075C131.325 134.35 118.675 144.8 104.1 153.874C80.712 168.355 48 180.006 48 188.8C48 212.175 56.8 232.8 83.2 232.8C118.4 232.8 136.275 206.4 153.6 206.4V364.8C153.6 383.225 170.1 400 188.8 400C207.775 400 224 383.775 224 364.8zM352 24C365.255 24 376 13.255 376 0S365.255 -24 352 -24S328 -13.255 328 0S338.745 24 352 24z" />
    <glyph glyph-name="hand-pointer"
      unicode="&#xF25A;"
      horiz-adv-x="448" d=" M358.182 268.639C338.689 293.4070000000001 305.5030000000001 300.584 278.31 287.737C263.183 303.4240000000001 242.128 310.2240000000001 221.715 307.366V381C221.715 417.944 191.979 448 155.429 448S89.143 417.944 89.143 381V219.871C69.234 227.281 45.871 224.965 27.06 210.999C-2.295 189.204 -8.733 147.6660000000001 12.51 117.847L122.209 -36.154C134.632 -53.59 154.741 -64 176 -64H354.286C385.088 -64 411.86 -42.5 418.843 -12.203L446.272 106.7960000000001A67.873 67.873 0 0 1 448 122V206C448 252.844 401.375 285.273 358.182 268.639zM80.985 168.303L108.111 130.224C117.106 117.598 137.142 123.937 137.142 139.507V381C137.142 406.12 173.713 406.16 173.713 381V206C173.713 197.164 180.876 190 189.713 190H196.57C205.407 190 212.57 197.164 212.57 206V241C212.57 266.12 249.141 266.16 249.141 241V206C249.141 197.164 256.304 190 265.141 190H272C280.837 190 288 197.164 288 206V227C288 252.12 324.5710000000001 252.16 324.5710000000001 227V206C324.5710000000001 197.164 331.7340000000001 190 340.5710000000001 190H347.4280000000001C356.2650000000001 190 363.4280000000001 197.164 363.4280000000001 206C363.4280000000001 231.121 399.999 231.16 399.999 206V122C399.999 120.512 399.8300000000001 119.023 399.497 117.577L372.067 -1.424C370.089 -10.006 362.777 -16 354.2850000000001 -16H176C170.231 -16 164.737 -13.122 161.303 -8.303L51.591 145.697C37.185 165.92 66.585 188.515 80.985 168.303zM176.143 48V144C176.143 152.837 182.411 160 190.143 160H196.143C203.875 160 210.143 152.837 210.143 144V48C210.143 39.163 203.875 32 196.143 32H190.143C182.41 32 176.143 39.163 176.143 48zM251.571 48V144C251.571 152.837 257.839 160 265.5710000000001 160H271.5710000000001C279.3030000000001 160 285.5710000000001 152.837 285.5710000000001 144V48C285.5710000000001 39.163 279.3030000000001 32 271.5710000000001 32H265.5710000000001C257.839 32 251.5710000000001 39.163 251.5710000000001 48zM327 48V144C327 152.837 333.268 160 341 160H347C354.7320000000001 160 361 152.837 361 144V48C361 39.163 354.7320000000001 32 347 32H341C333.268 32 327 39.163 327 48z" />
    <glyph glyph-name="hand-rock"
      unicode="&#xF255;"
      horiz-adv-x="512" d=" M408.864 368.948C386.463 402.846 342.756 411.221 310.051 392.536C280.577 424.005 230.906 423.629 201.717 392.558C154.557 419.578 93.007 387.503 91.046 331.752C44.846 342.593 0 307.999 0 260.5710000000001V203.618C0 170.877 14.28 139.664 39.18 117.984L136.89 32.903C141.142 29.201 140 27.33 140 -1e-13C140 -17.6730000000001 154.327 -32.0000000000001 172 -32.0000000000001H424C441.673 -32.0000000000001 456 -17.6730000000001 456 -1e-13C456 23.5129999999999 454.985 30.745 459.982 42.37L502.817 142.026C508.911 156.203 512 171.198 512 186.5939999999999V301.0370000000001C512 353.876 457.686 389.699 408.8640000000001 368.948zM464 186.594A64.505 64.505 0 0 0 458.718 160.981L415.8830000000001 61.326C410.653 49.155 408.0000000000001 36.286 408.0000000000001 23.076V16H188V26.286C188 42.656 180.86 58.263 168.41 69.103L70.7 154.183C56.274 166.745 48 184.764 48 203.619V260.572C48 293.78 100 294.1090000000001 100 259.895V218.667A16 16 0 0 1 105.493 206.6L112.493 200.505A16 16 0 0 1 139 212.571V329.1430000000001C139 362.24 191 362.868 191 328.466V301.7150000000001C191 292.879 198.164 285.7150000000001 207 285.7150000000001H214C222.836 285.7150000000001 230 292.879 230 301.7150000000001V342.858C230 375.992 282 376.533 282 342.181V301.7150000000001C282 292.879 289.163 285.7150000000001 298 285.7150000000001H305C313.837 285.7150000000001 321 292.879 321 301.7150000000001V329.144C321 362.174 373 362.924 373 328.467V301.716C373 292.88 380.163 285.716 389 285.716H396C404.837 285.716 412 292.88 412 301.716C412 334.862 464 335.329 464 301.039V186.5940000000001z" />
    <glyph glyph-name="hand-scissors"
      unicode="&#xF257;"
      horiz-adv-x="512" d=" M256 -32L326 -31.987C331.114 -31.987 336.231 -31.404 341.203 -30.258L460.202 -2.831C490.56 4.165 512 30.98 512 61.723V267.425C512 291.27 498.97 313.376 477.995 325.115L379.996 379.968C345.587 399.2290000000001 312.733 385.7920000000001 287.778 355.235L142.85 410.992C104.963 425.5710000000001 62.238 407.265 47.208 369.791C32.11 332.149 50.843 289.421 89.15 274.679L168 256L74 265.141C33.196 265.141 0 232.33 0 192.001C0 151.671 33.196 118.86 74 118.86H161.635C157.96 92.615 170.327 67.563 191.976 53.8539999999999C178.657 11.263 211.044 -32 256 -32zM256 16.013C230.84 16.013 230.88 52.58 256 52.58C264.837 52.58 272 59.743 272 68.58V75.436C272 84.273 264.837 91.436 256 91.436H228C202.841 91.436 202.878 128.003 228 128.003H256C264.837 128.003 272 135.166 272 144.003V150.859C272 159.696 264.837 166.859 256 166.859H74C39.57 166.859 39.625 217.14 74 217.14H256C264.837 217.14 272 224.303 272 233.14V244.772A16 16 0 0 1 261.746 259.705L106.389 319.49C74.837 331.63 92.957 378.773 125.611 366.207L292.16 302.116A16.001 16.001 0 0 1 310.299 306.928L332.063 333.5750000000001C337.883 340.702 348.411 342.639 356.551 338.0830000000001L454.551 283.2290000000001C460.379 279.966 464 273.911 464 267.424V61.723C464 53.232 458.006 45.919 449.424 43.941L330.423 16.514A19.743 19.743 0 0 0 326 16.012H256z" />
    <glyph glyph-name="hand-spock"
      unicode="&#xF259;"
      horiz-adv-x="512" d=" M21.096 66.21L150.188 -55.303A32 32 0 0 1 172.12 -64.001H409.7200000000001C423.8900000000001 -64.001 436.3730000000001 -54.682 440.4000000000001 -41.097L472.215 66.216A115.955 115.955 0 0 1 477 99.189V136.028C477 140.079 477.476 144.132 478.414 148.073L510.144 281.4830000000001C520.243 323.8950000000001 487.828 364.221 444.6 364.0080000000001C440.456 388.8640000000001 422.057 411.1730000000001 394.75 418.0000000000001C358.947 426.9520000000001 322.523 405.3450000000001 313.5 369.25L296.599 264L274.924 395.99C266.638 432.06 230.621 454.562 194.62 446.286C165.004 439.4820000000001 144.482 413.897 142.738 384.991C100.101 384.16 69.283 344.428 78.667 303.147L109.707 166.639C82.513 189.154 42.423 186.631 18.225 160.917C-7.151 133.956 -5.873 91.592 21.096 66.21zM53.164 128.021L53.166 128.0219999999999C60.385 135.694 72.407 136.002 80.022 128.8349999999999L133.034 78.9409999999999C143.225 69.351 160 76.6 160 90.594V160.073C160 161.266 159.866 162.456 159.603 163.619L125.473 313.791C119.877 338.408 156.975 346.651 162.527 322.212L192.926 188.4549999999999A16 16 0 0 1 208.529 176.0009999999999H217.1330000000001C227.4090000000001 176.0009999999999 235.0270000000001 185.5679999999999 232.7270000000001 195.5839999999999L191.107 376.7369999999999C185.484 401.2059999999999 222.497 409.813 228.142 385.2449999999999L273.362 188.4169999999999A16 16 0 0 1 288.956 176H302.173A16 16 0 0 1 317.695 188.119L360.067 357.6090000000001C366.171 382.0310000000001 403.029 372.7680000000001 396.932 348.3920000000001L358.805 195.88C356.284 185.792 363.92 176 374.327 176H384.021A16 16 0 0 1 399.586 188.295L426.509 301.4C432.3300000000001 325.848 469.306 317.087 463.475 292.598L431.7200000000001 159.19A100.094 100.094 0 0 1 429 136.028V99.189C429 92.641 428.057 86.138 426.195 79.8610000000001L397.775 -16H178.465L53.978 101.164C46.349 108.344 45.984 120.393 53.164 128.021z" />
    <glyph glyph-name="handshake"
      unicode="&#xF2B5;"
      horiz-adv-x="640" d=" M519.2 320.1L471.6 367.7A56.252 56.252 0 0 1 432 384H205.2C190.4 384 176.1 378.1 165.6 367.7L118 320.1H0V64.4H64C81.6 64.4 95.8 78.6 95.9 96.1H105L189.6 19.6999999999999C220.5 -5.4000000000001 263.4 -6.0000000000001 295.2 15.8999999999999C307.7 5.0999999999999 321.2 -1e-13 336.3 -1e-13C354.5 -1e-13 371.6 7.3999999999999 385.1 23.9999999999999C407.2000000000001 15.3 433.3 21.3999999999999 449.1 40.8L475.3 73.1C480.9 79.9999999999999 484.4 87.9 486.2 96.1H544.1C544.2 78.6 558.5 64.4 576 64.4H640V320.1H519.2zM48 96.4C39.2 96.4 32 103.6 32 112.4S39.2 128.4 48 128.4S64 121.2 64 112.4C64 103.5 56.8 96.4 48 96.4zM438 103.3L411.9 71.1C409.1 67.7 404.1 67.1 400.6 69.9L376.7 89.3L346.7 52.8C340.7 45.4999999999999 331.7 47.9999999999999 328.7 50.4L291.9 81.9L276.3 62.7C262.4 45.6 237.1 43 221 56.1L123.7 144.1H96V272.2H137.9L199.6 333.8C201.6 334.6 203.3 335.3 205.3 336.1H262L223.3 300.6C193.9 273.7 192.2 228.3 218.9 199.3C233.7 183.1 280.1 158.1 320.4 194.9L328.6 202.4L436.8 114.6C440.2 111.8 440.7 106.7 438 103.3zM544 144.1H474.8C472.5 146.9 469.9 149.5 467.1 151.8L364.4000000000001 235.2L376.9000000000001 246.6C383.4000000000001 252.6 383.9000000000001 262.7 377.9000000000001 269.2L367 280.9C361 287.4 350.9 287.8 344.4 281.9L289.2 231.3C279.7 222.6 263.5 221.9 254.6 231.3C245.3 241.2 246.1 256.4 255.8 265.2000000000001L321.4 325.3C328.8 332.1 338.4 335.8 348.4 335.8L432.1 336C434.2 336 436.2 335.2000000000001 437.6 333.7000000000001L499.3 272.1H544V144.1zM592 96.4C583.2 96.4 576 103.6 576 112.4S583.2 128.4 592 128.4S608 121.2 608 112.4C608 103.5 600.8 96.4 592 96.4z" />
    <glyph glyph-name="hdd"
      unicode="&#xF0A0;"
      horiz-adv-x="576" d=" M567.403 212.358L462.323 363.411A48 48 0 0 1 422.919 384H153.081A48 48 0 0 1 113.677 363.411L8.597 212.358A48.001 48.001 0 0 1 0 184.946V48C0 21.49 21.49 0 48 0H528C554.51 0 576 21.49 576 48V184.946C576 194.747 573 204.312 567.403 212.358zM153.081 336H422.919L500.832 224H75.168L153.081 336zM528 48H48V176H528V48zM496 112C496 94.327 481.673 80 464 80S432 94.327 432 112S446.327 144 464 144S496 129.673 496 112zM400 112C400 94.327 385.673 80 368 80S336 94.327 336 112S350.327 144 368 144S400 129.673 400 112z" />
    <glyph glyph-name="heart"
      unicode="&#xF004;"
      horiz-adv-x="512" d=" M458.4 383.7C400.6 432.3 311.3 425 256 368.7C200.7 425 111.4 432.4 53.6 383.7C-21.6 320.4 -10.6 217.2 43 162.5L218.4 -16.2C228.4 -26.4 241.8 -32.1 256 -32.1C270.3 -32.1 283.6 -26.4999999999999 293.6 -16.3L469 162.4C522.5 217.1 533.7 320.3 458.4 383.7zM434.8 196.2L259.4 17.5C257 15.1 255 15.1 252.6 17.5L77.2 196.2C40.7 233.4 33.3 303.8 84.5 346.9C123.4 379.6 183.4 374.7 221 336.4L256 300.7L291 336.4C328.8 374.9 388.8 379.6 427.5 347C478.6 303.9 471 233.1 434.8 196.2z" />
    <glyph glyph-name="hospital"
      unicode="&#xF0F8;"
      horiz-adv-x="448" d=" M128 204V244C128 250.627 133.373 256 140 256H180C186.627 256 192 250.627 192 244V204C192 197.373 186.627 192 180 192H140C133.373 192 128 197.373 128 204zM268 192H308C314.627 192 320 197.373 320 204V244C320 250.627 314.627 256 308 256H268C261.373 256 256 250.627 256 244V204C256 197.373 261.373 192 268 192zM192 108V148C192 154.627 186.627 160 180 160H140C133.373 160 128 154.627 128 148V108C128 101.373 133.373 96 140 96H180C186.627 96 192 101.373 192 108zM268 96H308C314.627 96 320 101.373 320 108V148C320 154.627 314.627 160 308 160H268C261.373 160 256 154.627 256 148V108C256 101.373 261.373 96 268 96zM448 -28V-64H0V-28C0 -21.373 5.373 -16 12 -16H31.5V362.9650000000001C31.5 374.582 42.245 384 55.5 384H144V424C144 437.255 154.745 448 168 448H280C293.255 448 304 437.255 304 424V384H392.5C405.755 384 416.5 374.582 416.5 362.9650000000001V-16H436C442.627 -16 448 -21.373 448 -28zM79.5 -15H192V52C192 58.627 197.373 64 204 64H244C250.627 64 256 58.627 256 52V-15H368.5V336H304V312C304 298.745 293.255 288 280 288H168C154.745 288 144 298.745 144 312V336H79.5V-15zM266 384H240V410A6 6 0 0 1 234 416H214A6 6 0 0 1 208 410V384H182A6 6 0 0 1 176 378V358A6 6 0 0 1 182 352H208V326A6 6 0 0 1 214 320H234A6 6 0 0 1 240 326V352H266A6 6 0 0 1 272 358V378A6 6 0 0 1 266 384z" />
    <glyph glyph-name="hourglass"
      unicode="&#xF254;"
      horiz-adv-x="384" d=" M368 400H372C378.627 400 384 405.373 384 412V436C384 442.627 378.627 448 372 448H12C5.373 448 0 442.627 0 436V412C0 405.373 5.373 400 12 400H16C16 319.4360000000001 48.188 234.193 113.18 192C47.899 149.619 16 64.1 16 -16H12C5.373 -16 0 -21.373 0 -28V-52C0 -58.627 5.373 -64 12 -64H372C378.627 -64 384 -58.627 384 -52V-28C384 -21.373 378.627 -16 372 -16H368C368 64.564 335.812 149.807 270.82 192C336.102 234.381 368 319.9 368 400zM64 400H320C320 298.38 262.693 216 192 216S64 298.379 64 400zM320 -16H64C64 85.62 121.308 168 192 168S320 85.62 320 -16z" />
    <glyph glyph-name="id-badge"
      unicode="&#xF2C1;"
      horiz-adv-x="384" d=" M336 448H48C21.5 448 0 426.5 0 400V-16C0 -42.5 21.5 -64 48 -64H336C362.5 -64 384 -42.5 384 -16V400C384 426.5 362.5 448 336 448zM336 -16H48V400H336V-16zM144 336H240C248.8 336 256 343.2 256 352S248.8 368 240 368H144C135.2 368 128 360.8 128 352S135.2 336 144 336zM192 160C227.3 160 256 188.7 256 224S227.3 288 192 288S128 259.3 128 224S156.7 160 192 160zM102.4 32H281.6C294 32 304 40.6 304 51.2V70.4C304 102.2 273.9 128 236.8 128C226 128 218.1 120 192 120C165.1 120 158.6 128 147.2 128C110.1 128 80 102.2 80 70.4V51.2C80 40.6 90 32 102.4 32z" />
    <glyph glyph-name="id-card"
      unicode="&#xF2C2;"
      horiz-adv-x="576" d=" M528 416H48C21.5 416 0 394.5 0 368V16C0 -10.5 21.5 -32 48 -32H528C554.5 -32 576 -10.5 576 16V368C576 394.5 554.5 416 528 416zM528 16H303.2C304.1 20.5 304 12.4 304 38.4C304 70.2 273.9 96 236.8 96C226 96 218.1 88 192 88C165.1 88 158.6 96 147.2 96C110.1 96 80 70.2 80 38.4C80 12.4 79.8 20.5 80.8 16H48V304H528V16zM360 96H472C476.4 96 480 99.6 480 104V120C480 124.4 476.4 128 472 128H360C355.6 128 352 124.4 352 120V104C352 99.6 355.6 96 360 96zM360 160H472C476.4 160 480 163.6 480 168V184C480 188.4 476.4 192 472 192H360C355.6 192 352 188.4 352 184V168C352 163.6 355.6 160 360 160zM360 224H472C476.4 224 480 227.6 480 232V248C480 252.4 476.4 256 472 256H360C355.6 256 352 252.4 352 248V232C352 227.6 355.6 224 360 224zM192 128C227.3 128 256 156.7 256 192S227.3 256 192 256S128 227.3 128 192S156.7 128 192 128z" />
    <glyph glyph-name="image"
      unicode="&#xF03E;"
      horiz-adv-x="512" d=" M464 384H48C21.49 384 0 362.51 0 336V48C0 21.49 21.49 0 48 0H464C490.51 0 512 21.49 512 48V336C512 362.51 490.51 384 464 384zM458 48H54A6 6 0 0 0 48 54V330A6 6 0 0 0 54 336H458A6 6 0 0 0 464 330V54A6 6 0 0 0 458 48zM128 296C105.909 296 88 278.091 88 256S105.909 216 128 216S168 233.909 168 256S150.091 296 128 296zM96 96H416V176L328.485 263.515C323.7990000000001 268.201 316.201 268.201 311.514 263.515L192 144L152.485 183.515C147.799 188.201 140.201 188.201 135.514 183.515L96 144V96z" />
    <glyph glyph-name="images"
      unicode="&#xF302;"
      horiz-adv-x="576" d=" M480 32V16C480 -10.51 458.51 -32 432 -32H48C21.49 -32 0 -10.51 0 16V272C0 298.51 21.49 320 48 320H64V272H54A6 6 0 0 1 48 266V22A6 6 0 0 1 54 16H426A6 6 0 0 1 432 22V32H480zM522 368H150A6 6 0 0 1 144 362V118A6 6 0 0 1 150 112H522A6 6 0 0 1 528 118V362A6 6 0 0 1 522 368zM528 416C554.51 416 576 394.51 576 368V112C576 85.49 554.51 64 528 64H144C117.49 64 96 85.49 96 112V368C96 394.51 117.49 416 144 416H528zM264 304C264 281.909 246.091 264 224 264S184 281.909 184 304S201.909 344 224 344S264 326.091 264 304zM192 208L231.515 247.515C236.201 252.201 243.799 252.201 248.486 247.515L288 208L391.515 311.515C396.201 316.201 403.799 316.201 408.486 311.515L480 240V160H192V208z" />
    <glyph glyph-name="keyboard"
      unicode="&#xF11C;"
      horiz-adv-x="576" d=" M528 384H48C21.49 384 0 362.51 0 336V48C0 21.49 21.49 0 48 0H528C554.51 0 576 21.49 576 48V336C576 362.51 554.51 384 528 384zM536 48C536 43.589 532.411 40 528 40H48C43.589 40 40 43.589 40 48V336C40 340.411 43.589 344 48 344H528C532.411 344 536 340.411 536 336V48zM170 178V206C170 212.627 164.627 218 158 218H130C123.373 218 118 212.627 118 206V178C118 171.373 123.373 166 130 166H158C164.627 166 170 171.373 170 178zM266 178V206C266 212.627 260.627 218 254 218H226C219.373 218 214 212.627 214 206V178C214 171.373 219.373 166 226 166H254C260.627 166 266 171.373 266 178zM362 178V206C362 212.627 356.627 218 350 218H322C315.373 218 310 212.627 310 206V178C310 171.373 315.373 166 322 166H350C356.627 166 362 171.373 362 178zM458 178V206C458 212.627 452.627 218 446 218H418C411.373 218 406 212.627 406 206V178C406 171.373 411.373 166 418 166H446C452.627 166 458 171.373 458 178zM122 96V124C122 130.627 116.627 136 110 136H82C75.373 136 70 130.627 70 124V96C70 89.373 75.373 84 82 84H110C116.627 84 122 89.373 122 96zM506 96V124C506 130.627 500.627 136 494 136H466C459.373 136 454 130.627 454 124V96C454 89.373 459.373 84 466 84H494C500.627 84 506 89.373 506 96zM122 260V288C122 294.627 116.627 300 110 300H82C75.373 300 70 294.627 70 288V260C70 253.373 75.373 248 82 248H110C116.627 248 122 253.373 122 260zM218 260V288C218 294.627 212.627 300 206 300H178C171.373 300 166 294.627 166 288V260C166 253.373 171.373 248 178 248H206C212.627 248 218 253.373 218 260zM314 260V288C314 294.627 308.627 300 302 300H274C267.373 300 262 294.627 262 288V260C262 253.373 267.373 248 274 248H302C308.627 248 314 253.373 314 260zM410 260V288C410 294.627 404.627 300 398 300H370C363.373 300 358 294.627 358 288V260C358 253.373 363.373 248 370 248H398C404.627 248 410 253.373 410 260zM506 260V288C506 294.627 500.627 300 494 300H466C459.373 300 454 294.627 454 288V260C454 253.373 459.373 248 466 248H494C500.627 248 506 253.373 506 260zM408 102V118C408 124.627 402.627 130 396 130H180C173.373 130 168 124.627 168 118V102C168 95.373 173.373 90 180 90H396C402.627 90 408 95.373 408 102z" />
    <glyph glyph-name="lemon"
      unicode="&#xF094;"
      horiz-adv-x="512" d=" M484.112 420.111C455.989 448.233 416.108 456.057 387.0590000000001 439.135C347.604 416.152 223.504 489.111 91.196 356.803C-41.277 224.328 31.923 100.528 8.866 60.942C-8.056 31.891 -0.234 -7.99 27.888 -36.112C56.023 -64.247 95.899 -72.0499999999999 124.945 -55.133C164.368 -32.163 288.502 -105.102 420.803 27.196C553.277 159.673 480.076 283.473 503.134 323.057C520.056 352.1070000000001 512.234 391.988 484.112 420.111zM461.707 347.217C422.907 280.608 507.307 181.582 386.862 61.137C266.422 -59.306 167.387 25.089 100.786 -13.706C78.1069999999999 -26.913 36.751 13.535 50.2929999999999 36.782C89.0929999999999 103.391 4.6929999999999 202.417 125.138 322.862C245.573 443.298 344.616 358.914 411.219 397.708C433.949 410.948 475.224 370.42 461.707 347.217zM291.846 338.481C293.216 327.521 285.442 317.524 274.481 316.154C219.635 309.299 138.702 228.367 131.846 173.519C130.473 162.53 120.447 154.785 109.52 156.154C98.559 157.524 90.785 167.52 92.155 178.48C101.317 251.766 196.322 346.6950000000001 269.5200000000001 355.8450000000001C280.473 357.213 290.4760000000001 349.442 291.8460000000001 338.481z" />
    <glyph glyph-name="life-ring"
      unicode="&#xF1CD;"
      horiz-adv-x="512" d=" M256 -56C392.967 -56 504 55.033 504 192S392.967 440 256 440S8 328.967 8 192S119.033 -56 256 -56zM152.602 20.72L206.013 74.131C237.819 60.625 274.141 60.609 305.987 74.131L359.398 20.72C296.1810000000001 -17.599 215.819 -17.599 152.602 20.72zM336 192C336 147.888 300.112 112 256 112S176 147.888 176 192S211.888 272 256 272S336 236.112 336 192zM427.28 88.602L373.869 142.013C387.374 173.819 387.391 210.141 373.869 241.987L427.28 295.398C465.599 232.181 465.599 151.819 427.28 88.602zM359.397 363.28L305.986 309.8690000000001C274.18 323.374 237.858 323.391 206.013 309.8690000000001L152.602 363.28C215.819 401.599 296.1810000000001 401.599 359.397 363.28zM84.72 295.398L138.131 241.987C124.625 210.181 124.609 173.859 138.131 142.013L84.72 88.602C46.401 151.819 46.401 232.181 84.72 295.398z" />
    <glyph glyph-name="lightbulb"
      unicode="&#xF0EB;"
      horiz-adv-x="384" d=" M272 20V-8C272 -18.449 265.32 -27.334 256 -30.629V-40C256 -53.255 245.255 -64 232 -64H152C138.745 -64 128 -53.255 128 -40V-30.629C118.68 -27.334 112 -18.449 112 -8V20C112 26.627 117.373 32 124 32H260C266.627 32 272 26.627 272 20zM128 272C128 307.29 156.71 336 192 336C200.837 336 208 343.164 208 352S200.837 368 192 368C139.065 368 96 324.935 96 272C96 263.164 103.164 256 112 256S128 263.164 128 272zM192 400C262.734 400 320 342.746 320 272C320 194.398 282.617 211.523 239.02 112H144.98C101.318 211.67 64 194.131 64 272C64 342.735 121.254 400 192 400M192 448C94.805 448 16 369.197 16 272C16 170.269 67.697 180.459 106.516 79.326C110.066 70.077 118.986 64 128.892 64H255.107C265.013 64 273.933 70.078 277.483 79.326C316.303 180.459 368 170.269 368 272C368 369.197 289.195 448 192 448z" />
    <glyph glyph-name="list-alt"
      unicode="&#xF022;"
      horiz-adv-x="512" d=" M464 416H48C21.49 416 0 394.51 0 368V16C0 -10.51 21.49 -32 48 -32H464C490.51 -32 512 -10.51 512 16V368C512 394.51 490.51 416 464 416zM458 16H54A6 6 0 0 0 48 22V362A6 6 0 0 0 54 368H458A6 6 0 0 0 464 362V22A6 6 0 0 0 458 16zM416 108V84C416 77.373 410.627 72 404 72H204C197.373 72 192 77.373 192 84V108C192 114.627 197.373 120 204 120H404C410.627 120 416 114.627 416 108zM416 204V180C416 173.373 410.627 168 404 168H204C197.373 168 192 173.373 192 180V204C192 210.627 197.373 216 204 216H404C410.627 216 416 210.627 416 204zM416 300V276C416 269.373 410.627 264 404 264H204C197.373 264 192 269.373 192 276V300C192 306.627 197.373 312 204 312H404C410.627 312 416 306.627 416 300zM164 288C164 268.118 147.882 252 128 252S92 268.118 92 288S108.118 324 128 324S164 307.882 164 288zM164 192C164 172.118 147.882 156 128 156S92 172.118 92 192S108.118 228 128 228S164 211.882 164 192zM164 96C164 76.118 147.882 60 128 60S92 76.118 92 96S108.118 132 128 132S164 115.882 164 96z" />
    <glyph glyph-name="map"
      unicode="&#xF279;"
      horiz-adv-x="576" d=" M508.505 411.83L381.517 355.424L207.179 413.537A47.992 47.992 0 0 1 172.505 411.863L28.505 347.863A48 48 0 0 1 0 304V16.033C0 -18.905 35.991 -41.831 67.495 -27.83L194.483 28.576L368.822 -29.537A47.992 47.992 0 0 1 403.496 -27.863L547.496 36.137A48 48 0 0 1 576 80V367.967C576 402.905 540.009 425.831 508.505 411.83zM360 24L216 72V360L360 312V24zM48 16V304L168 357.333V69.333L48 16zM528 80L408 26.667V314.6670000000001L528 368V80z" />
    <glyph glyph-name="meh"
      unicode="&#xF11A;"
      horiz-adv-x="496" d=" M248 440C111 440 0 329 0 192S111 -56 248 -56S496 55 496 192S385 440 248 440zM248 -8C137.7 -8 48 81.7 48 192S137.7 392 248 392S448 302.3 448 192S358.3 -8 248 -8zM168 208C185.7 208 200 222.3 200 240S185.7 272 168 272S136 257.7 136 240S150.3 208 168 208zM328 272C310.3 272 296 257.7 296 240S310.3 208 328 208S360 222.3 360 240S345.7 272 328 272zM336 128H160C146.8 128 136 117.2 136 104S146.8 80 160 80H336C349.2 80 360 90.8 360 104S349.2 128 336 128z" />
    <glyph glyph-name="minus-square"
      unicode="&#xF146;"
      horiz-adv-x="448" d=" M108 164C101.4 164 96 169.4 96 176V208C96 214.6 101.4 220 108 220H340C346.6 220 352 214.6 352 208V176C352 169.4 346.6 164 340 164H108zM448 368V16C448 -10.5 426.5 -32 400 -32H48C21.5 -32 0 -10.5 0 16V368C0 394.5 21.5 416 48 416H400C426.5 416 448 394.5 448 368zM400 22V362C400 365.3 397.3 368 394 368H54C50.7 368 48 365.3 48 362V22C48 18.7 50.7 16 54 16H394C397.3 16 400 18.7 400 22z" />
    <glyph glyph-name="money-bill-alt"
      unicode="&#xF3D1;"
      horiz-adv-x="640" d=" M320 304C266.979 304 224 253.857 224 192C224 130.153 266.977 80 320 80C373 80 416 130.13 416 192C416 253.857 373.021 304 320 304zM368 139.572C368 132.095 364.0830000000001 128 356.428 128H289.135C281.479 128 277.562 132.095 277.562 139.572V148.473C277.562 155.95 281.479 160.045 289.135 160.045H304.266V199.923C304.266 205.086 304.8 210.426 304.8 210.426H304.444S302.665 207.756 301.596 206.688C297.1449999999999 202.415 291.092 202.237 285.93 207.756L280.412 213.987C275.07 219.328 275.428 225.203 280.946 230.366L302.666 250.305C307.115 254.4 311.032 256.002 317.086 256.002H329.191C336.847 256.002 340.941 252.086 340.941 244.43V160.046H356.429C364.084 160.046 368.001 155.952 368.001 148.474V139.572zM616 384H24C10.745 384 0 373.255 0 360V25C0 11.745 10.745 1 24 1H616C629.255 1 640 11.745 640 25V360C640 373.255 629.255 384 616 384zM512 48H128C128 92.183 92.183 128 48 128V256C92.183 256 128 291.817 128 336H512C512 291.817 547.817 256 592 256V128C547.817 128 512 92.183 512 48z" />
    <glyph glyph-name="moon"
      unicode="&#xF186;"
      horiz-adv-x="512" d=" M279.135 -64C357.891 -64 430.117 -28.196 477.979 30.775C506.249 65.606 475.421 116.497 431.73 108.176C349.382 92.493 273.458 155.444 273.458 238.968C273.458 287.392 299.518 331.26 340.892 354.804C379.637 376.854 369.891 435.592 325.87 443.723A257.936 257.936 0 0 1 279.135 448C137.775 448 23.135 333.425 23.135 192C23.135 50.64 137.711 -64 279.135 -64zM279.135 400C292.12 400 304.824 398.799 317.151 396.522C262.391 365.359 225.4580000000001 306.48 225.4580000000001 238.968C225.4580000000001 125.12 329.0990000000001 39.768 440.7100000000001 61.024C402.574 14.036 344.366 -16 279.135 -16C164.26 -16 71.135 77.125 71.135 192S164.26 400 279.135 400z" />
    <glyph glyph-name="newspaper"
      unicode="&#xF1EA;"
      horiz-adv-x="576" d=" M552 384H112C91.142 384 73.357 370.623 66.752 352H24C10.745 352 0 341.255 0 328V56C0 25.072 25.072 0 56 0H552C565.255 0 576 10.745 576 24V360C576 373.255 565.255 384 552 384zM48 56V304H64V56C64 51.589 60.411 48 56 48S48 51.589 48 56zM528 48H111.422C111.796 50.614 112 53.283 112 56V336H528V48zM172 168H308C314.627 168 320 173.373 320 180V276C320 282.627 314.627 288 308 288H172C165.373 288 160 282.627 160 276V180C160 173.373 165.373 168 172 168zM200 248H280V208H200V248zM160 108V132C160 138.627 165.373 144 172 144H308C314.627 144 320 138.627 320 132V108C320 101.373 314.627 96 308 96H172C165.373 96 160 101.373 160 108zM352 108V132C352 138.627 357.373 144 364 144H468C474.627 144 480 138.627 480 132V108C480 101.373 474.627 96 468 96H364C357.373 96 352 101.373 352 108zM352 252V276C352 282.627 357.373 288 364 288H468C474.627 288 480 282.627 480 276V252C480 245.373 474.627 240 468 240H364C357.373 240 352 245.373 352 252zM352 180V204C352 210.627 357.373 216 364 216H468C474.627 216 480 210.627 480 204V180C480 173.373 474.627 168 468 168H364C357.373 168 352 173.373 352 180z" />
    <glyph glyph-name="object-group"
      unicode="&#xF247;"
      horiz-adv-x="512" d=" M500 320C506.627 320 512 325.373 512 332V404C512 410.627 506.627 416 500 416H428C421.373 416 416 410.627 416 404V392H96V404C96 410.627 90.627 416 84 416H12C5.373 416 0 410.627 0 404V332C0 325.373 5.373 320 12 320H24V64H12C5.373 64 0 58.627 0 52V-20C0 -26.627 5.373 -32 12 -32H84C90.627 -32 96 -26.627 96 -20V-8H416V-20C416 -26.627 421.373 -32 428 -32H500C506.627 -32 512 -26.627 512 -20V52C512 58.627 506.627 64 500 64H488V320H500zM448 384H480V352H448V384zM32 384H64V352H32V384zM64 0H32V32H64V0zM480 0H448V32H480V0zM440 64H428C421.373 64 416 58.627 416 52V40H96V52C96 58.627 90.627 64 84 64H72V320H84C90.627 320 96 325.373 96 332V344H416V332C416 325.373 421.373 320 428 320H440V64zM404 256H320V308C320 314.628 314.627 320 308 320H108C101.373 320 96 314.628 96 308V140C96 133.372 101.373 128 108 128H192V76C192 69.372 197.373 64 204 64H404C410.627 64 416 69.372 416 76V244C416 250.628 410.627 256 404 256zM136 280H280V168H136V280zM376 104H232V128H308C314.627 128 320 133.372 320 140V216H376V104z" />
    <glyph glyph-name="object-ungroup"
      unicode="&#xF248;"
      horiz-adv-x="576" d=" M564 224C570.627 224 576 229.373 576 236V308C576 314.627 570.627 320 564 320H492C485.373 320 480 314.627 480 308V296H392V320H404C410.627 320 416 325.373 416 332V404C416 410.627 410.627 416 404 416H332C325.373 416 320 410.627 320 404V392H96V404C96 410.627 90.627 416 84 416H12C5.373 416 0 410.627 0 404V332C0 325.373 5.373 320 12 320H24V160H12C5.373 160 0 154.627 0 148V76C0 69.373 5.373 64 12 64H84C90.627 64 96 69.373 96 76V88H184V64H172C165.373 64 160 58.627 160 52V-20C160 -26.627 165.373 -32 172 -32H244C250.627 -32 256 -26.627 256 -20V-8H480V-20C480 -26.627 485.373 -32 492 -32H564C570.627 -32 576 -26.627 576 -20V52C576 58.627 570.627 64 564 64H552V224H564zM352 384H384V352H352V384zM352 128H384V96H352V128zM64 96H32V128H64V96zM64 352H32V384H64V352zM96 136V148C96 154.627 90.627 160 84 160H72V320H84C90.627 320 96 325.373 96 332V344H320V332C320 325.373 325.373 320 332 320H344V160H332C325.373 160 320 154.627 320 148V136H96zM224 0H192V32H224V0zM504 64H492C485.373 64 480 58.627 480 52V40H256V52C256 58.627 250.627 64 244 64H232V88H320V76C320 69.373 325.373 64 332 64H404C410.627 64 416 69.373 416 76V148C416 154.627 410.627 160 404 160H392V248H480V236C480 229.373 485.373 224 492 224H504V64zM544 0H512V32H544V0zM544 256H512V288H544V256z" />
    <glyph glyph-name="paper-plane"
      unicode="&#xF1D8;"
      horiz-adv-x="512" d=" M440 441.5L24 201.6C-10.4 181.7 -7.1 130.8 29.7 115.7L144 68.4V-16C144 -62.4 203.2 -81.5 230.6 -44.6L274.4 14.5L386.3 -31.7C392.2 -34.1 398.4 -35.3 404.6 -35.3C412.8 -35.3 420.9 -33.2 428.2 -29.1C441 -21.9 449.8 -9.1 452.1 5.4L511.4999999999999 392.6C517.5999999999999 432.7 474.6 461.4 440 441.5zM192 -16V48.6L228.6 33.5L192 -16zM404.6 12.7L250.8 76.2L391 278.5C401.7 294 381.5 312 367.3 299.7L155.8 115.4L48 160L464 400L404.6 12.7z" />
    <glyph glyph-name="pause-circle"
      unicode="&#xF28B;"
      horiz-adv-x="512" d=" M256 440C119 440 8 329 8 192S119 -56 256 -56S504 55 504 192S393 440 256 440zM256 -8C145.5 -8 56 81.5 56 192S145.5 392 256 392S456 302.5 456 192S366.5 -8 256 -8zM352 272V112C352 103.2 344.8 96 336 96H288C279.2 96 272 103.2 272 112V272C272 280.8 279.2 288 288 288H336C344.8 288 352 280.8 352 272zM240 272V112C240 103.2 232.8 96 224 96H176C167.2 96 160 103.2 160 112V272C160 280.8 167.2 288 176 288H224C232.8 288 240 280.8 240 272z" />
    <glyph glyph-name="play-circle"
      unicode="&#xF144;"
      horiz-adv-x="512" d=" M371.7 210L195.7 317C179.9 325.8 160 314.5 160 296V88C160 69.6 179.8 58.2 195.7 67L371.7 168C388.1 177.1 388.1 200.8 371.7 210zM504 192C504 329 393 440 256 440S8 329 8 192S119 -56 256 -56S504 55 504 192zM56 192C56 302.5 145.5 392 256 392S456 302.5 456 192S366.5 -8 256 -8S56 81.5 56 192z" />
    <glyph glyph-name="plus-square"
      unicode="&#xF0FE;"
      horiz-adv-x="448" d=" M352 208V176C352 169.4 346.6 164 340 164H252V76C252 69.4 246.6 64 240 64H208C201.4 64 196 69.4 196 76V164H108C101.4 164 96 169.4 96 176V208C96 214.6 101.4 220 108 220H196V308C196 314.6 201.4 320 208 320H240C246.6 320 252 314.6 252 308V220H340C346.6 220 352 214.6 352 208zM448 368V16C448 -10.5 426.5 -32 400 -32H48C21.5 -32 0 -10.5 0 16V368C0 394.5 21.5 416 48 416H400C426.5 416 448 394.5 448 368zM400 22V362C400 365.3 397.3 368 394 368H54C50.7 368 48 365.3 48 362V22C48 18.7 50.7 16 54 16H394C397.3 16 400 18.7 400 22z" />
    <glyph glyph-name="question-circle"
      unicode="&#xF059;"
      horiz-adv-x="512" d=" M256 440C119.043 440 8 328.9170000000001 8 192C8 55.003 119.043 -56 256 -56S504 55.003 504 192C504 328.9170000000001 392.957 440 256 440zM256 -8C145.468 -8 56 81.431 56 192C56 302.495 145.472 392 256 392C366.491 392 456 302.529 456 192C456 81.47 366.569 -8 256 -8zM363.2440000000001 247.2C363.2440000000001 180.148 290.8230000000001 179.116 290.8230000000001 154.337V148C290.8230000000001 141.373 285.4500000000001 136 278.8230000000001 136H233.1760000000001C226.5490000000001 136 221.1760000000001 141.373 221.1760000000001 148V156.659C221.1760000000001 192.404 248.2760000000001 206.693 268.7550000000001 218.175C286.3160000000001 228.02 297.0790000000001 234.716 297.0790000000001 247.754C297.0790000000001 265 275.0800000000001 276.447 257.2950000000001 276.447C234.1060000000001 276.447 223.4010000000001 265.4700000000001 208.3530000000001 246.478C204.2960000000001 241.358 196.8930000000001 240.407 191.6870000000001 244.354L163.8630000000001 265.452C158.7560000000001 269.324 157.6120000000001 276.5180000000001 161.2190000000001 281.815C184.846 316.509 214.94 336 261.794 336C310.865 336 363.244 297.6960000000001 363.244 247.2zM298 80C298 56.841 279.159 38 256 38S214 56.841 214 80S232.841 122 256 122S298 103.159 298 80z" />
    <glyph glyph-name="registered"
      unicode="&#xF25D;"
      horiz-adv-x="512" d=" M256 440C119.033 440 8 328.967 8 192S119.033 -56 256 -56S504 55.033 504 192S392.967 440 256 440zM256 -8C145.468 -8 56 81.451 56 192C56 302.531 145.451 392 256 392C366.532 392 456 302.549 456 192C456 81.468 366.549 -8 256 -8zM366.442 73.791C313.396 170.075 316.192 165.259 313.171 169.876C337.438 183.755 352.653 211.439 352.653 243.052C352.653 295.555 322.406 328.304 251.1550000000001 328.304H172.488C165.8710000000001 328.304 160.488 322.921 160.488 316.304V68C160.488 61.383 165.8710000000001 56 172.488 56H211.0560000000001C217.673 56 223.0560000000001 61.383 223.0560000000001 68V151.663H255.0140000000001L302.5290000000001 62.36A11.98 11.98 0 0 1 313.1220000000001 56H355.9320000000001C365.0720000000001 56 370.8460000000001 65.799 366.4420000000001 73.791zM256.933 208.094H223.058V272.234H250.435C282.852 272.234 289.3640000000001 260.101 289.3640000000001 240.525C289.3630000000001 219.612 277.846 208.094 256.9330000000001 208.094z" />
    <glyph glyph-name="save"
      unicode="&#xF0C7;"
      horiz-adv-x="448" d=" M433.941 318.059L350.059 401.9410000000001A48 48 0 0 1 316.118 416H48C21.49 416 0 394.51 0 368V16C0 -10.51 21.49 -32 48 -32H400C426.51 -32 448 -10.51 448 16V284.118A48 48 0 0 1 433.941 318.059zM272 368V288H144V368H272zM394 16H54A6 6 0 0 0 48 22V362A6 6 0 0 0 54 368H96V264C96 250.745 106.745 240 120 240H296C309.255 240 320 250.745 320 264V364.118L398.243 285.875A6 6 0 0 0 400 281.632V22A6 6 0 0 0 394 16zM224 216C175.477 216 136 176.523 136 128S175.477 40 224 40S312 79.477 312 128S272.523 216 224 216zM224 88C201.944 88 184 105.944 184 128S201.944 168 224 168S264 150.056 264 128S246.056 88 224 88z" />
    <glyph glyph-name="share-square"
      unicode="&#xF14D;"
      horiz-adv-x="576" d=" M561.938 289.94L417.94 433.908C387.926 463.922 336 442.903 336 399.968V342.77C293.55 340.89 251.97 336.2200000000001 215.24 324.7800000000001C180.07 313.8300000000001 152.17 297.2000000000001 132.33 275.36C108.22 248.8 96 215.4 96 176.06C96 114.363 129.178 63.605 180.87 31.3C218.416 7.792 266.118 43.951 251.89 87.04C236.375 134.159 234.734 157.963 336 165.8V112C336 69.007 387.968 48.087 417.94 78.06L561.938 222.06C580.688 240.8 580.688 271.2 561.938 289.94zM384 112V215.84C255.309 213.918 166.492 192.65 206.31 72C176.79 90.45 144 123.92 144 176.06C144 285.394 273.14 295.007 384 295.91V400L528 256L384 112zM408.74 27.507A82.658 82.658 0 0 1 429.714 36.81C437.69 41.762 448 35.984 448 26.596V-16C448 -42.51 426.51 -64 400 -64H48C21.49 -64 0 -42.51 0 -16V336C0 362.51 21.49 384 48 384H180C186.627 384 192 378.627 192 372V367.514C192 362.597 189.013 358.145 184.431 356.362C170.729 351.031 158.035 344.825 146.381 337.777A12.138 12.138 0 0 0 140.101 336H54A6 6 0 0 1 48 330V-10A6 6 0 0 1 54 -16H394A6 6 0 0 1 400 -10V15.966C400 21.336 403.579 26.025 408.74 27.507z" />
    <glyph glyph-name="smile"
      unicode="&#xF118;"
      horiz-adv-x="496" d=" M248 440C111 440 0 329 0 192S111 -56 248 -56S496 55 496 192S385 440 248 440zM248 -8C137.7 -8 48 81.7 48 192S137.7 392 248 392S448 302.3 448 192S358.3 -8 248 -8zM332 135.4C311.2 110.4 280.5 96 248 96S184.8 110.3 164 135.4C155.5 145.6 140.4 146.9 130.2 138.5C120 130 118.7 114.9 127.1 104.7C157.1 68.7 201.2 48.1 248 48.1S338.9 68.7 368.9 104.7C377.4 114.9 376 130 365.8 138.5C355.6 146.9 340.5 145.6 332 135.4zM168 208C185.7 208 200 222.3 200 240S185.7 272 168 272S136 257.7 136 240S150.3 208 168 208zM328 208C345.7 208 360 222.3 360 240S345.7 272 328 272S296 257.7 296 240S310.3 208 328 208z" />
    <glyph glyph-name="snowflake"
      unicode="&#xF2DC;"
      horiz-adv-x="448" d=" M438.237 92.073L371.663 130.613L431.111 140.94C436.957 142.315 441.72 146.123 444.569 151.07C447.0490000000001 155.377 448.075 160.548 447.093 165.721C444.983 176.836 434.4070000000001 183.76 423.4720000000001 181.188L338.0490000000001 150.073L255.914 192L338.05 233.926L423.473 202.811C434.409 200.239 444.985 207.163 447.094 218.278C449.205 229.393 442.048 240.487 431.113 243.059L371.665 253.386L438.238 291.926C447.778 297.449 450.853 310.018 445.105 320C439.357 329.982 426.965 333.596 417.425 328.074L350.851 289.534L371.656 346.3210000000001C374.902 357.103 368.898 368.863 358.243 372.589C347.589 376.314 336.3209999999999 370.592 333.075 359.81L317.2369999999999 270.075L244.8139999999999 228.149V312L314.3989999999999 370.621C322.0879999999999 378.831 321.3959999999999 391.4770000000001 312.8509999999999 398.866C304.3059999999999 406.257 291.1459999999999 405.589 283.4569999999999 397.38L244.8129999999999 350.92V428C244.8129999999999 439.046 235.4949999999999 448 223.9999999999999 448S203.1869999999999 439.046 203.1869999999999 428V350.92L164.5429999999999 397.38C156.8539999999999 405.5900000000001 143.6939999999999 406.256 135.1489999999999 398.866C126.6049999999999 391.477 125.9129999999999 378.831 133.6019999999999 370.621L203.187 312V228.147L130.764 270.073L114.926 359.809C111.679 370.591 100.411 376.313 89.757 372.588C79.101 368.863 73.098 357.102 76.344 346.32L97.149 289.533L30.576 328.073C21.036 333.596 8.643 329.981 2.896 319.999S0.223 297.448 9.763 291.925L76.337 253.385L16.888 243.057C5.953 240.485 -1.202 229.391 0.907 218.276C3.017 207.162 13.593 200.238 24.529 202.81L109.951 233.925L192.086 192L109.95 150.074L24.527 181.189C13.591 183.761 3.016 176.8370000000001 0.905 165.723C-1.204 154.61 5.951 143.514 16.886 140.942L76.335 130.614L9.761 92.074C0.223 86.551 -2.852 73.982 2.896 64S21.036 50.403 30.576 55.926L97.15 94.466L76.345 37.68C74.61 31.916 75.517 25.875 78.365 20.929C80.845 16.622 84.798 13.145 89.757 11.412C100.412 7.687 111.68 13.409 114.926 24.191L130.764 113.927L203.187 155.853V72L133.602 13.379C125.912 5.169 126.605 -7.476 135.149 -14.866C143.693 -22.254 156.854 -21.589 164.543 -13.379L203.187 33.081V-44C203.187 -55.046 212.505 -64 224 -64S244.813 -55.046 244.813 -44V33.081L283.457 -13.379C287.568 -17.768 293.2389999999999 -19.9999999999999 298.935 -19.9999999999999C303.8949999999999 -19.9999999999999 308.874 -18.3059999999999 312.851 -14.8659999999999C321.396 -7.4759999999999 322.088 5.1690000000001 314.399 13.3790000000001L244.813 72V155.853L317.236 113.927L333.074 24.191C336.32 13.409 347.588 7.687 358.242 11.412C368.8950000000001 15.138 374.901 26.8990000000001 371.654 37.6800000000001L350.849 94.467L417.423 55.927C426.963 50.404 439.356 54.019 445.103 64.001C450.852 73.982 447.778 86.5510000000001 438.237 92.073z" />
    <glyph glyph-name="square"
      unicode="&#xF0C8;"
      horiz-adv-x="448" d=" M400 416H48C21.5 416 0 394.5 0 368V16C0 -10.5 21.5 -32 48 -32H400C426.5 -32 448 -10.5 448 16V368C448 394.5 426.5 416 400 416zM394 16H54C50.7 16 48 18.7 48 22V362C48 365.3 50.7 368 54 368H394C397.3 368 400 365.3 400 362V22C400 18.7 397.3 16 394 16z" />
    <glyph glyph-name="star-half"
      unicode="&#xF089;"
      horiz-adv-x="576" d=" M288 62.7L163.7 -2.7L187.4 135.6999999999999L86.8 233.7L225.8 253.8999999999999L288 379.8999999999999V448C276.6 448 265.2 442.1 259.3 430.2L194 297.8L47.9 276.6C21.7 272.8 11.2 240.5 30.2 222L135.9 119L110.9 -26.5C106.4 -52.6 133.9 -72.5 157.3 -60.2L288 8.4V62.7z" />
    <glyph glyph-name="star"
      unicode="&#xF005;"
      horiz-adv-x="576" d=" M528.1 276.5L382 297.8L316.7 430.2C305 453.8 271.1 454.1 259.3 430.2L194 297.8L47.9 276.5C21.7 272.7 11.2 240.4 30.2 221.9L135.9 118.9L110.9 -26.6C106.4 -52.9 134.1 -72.6 157.3 -60.3L288 8.4L418.7 -60.3C441.9 -72.5 469.6 -52.9 465.1 -26.6L440.1 118.9L545.8 221.9C564.8 240.4 554.3 272.7 528.0999999999999 276.5zM388.6 135.7L412.3 -2.7L288 62.6L163.7 -2.7L187.4 135.7000000000001L86.8 233.7000000000001L225.8 253.9000000000001L288 379.9000000000001L350.2 253.9000000000001L489.2 233.7000000000001L388.6 135.7000000000001z" />
    <glyph glyph-name="sticky-note"
      unicode="&#xF249;"
      horiz-adv-x="448" d=" M448 99.894V368C448 394.51 426.51 416 400 416H48C21.49 416 0 394.51 0 368V16.012C0 -10.498 21.49 -31.988 48 -31.988H316.118A48 48 0 0 1 350.059 -17.929L433.941 65.953A48 48 0 0 1 448 99.894zM320 19.894V96.012H396.118L320 19.894zM400 368V144.012H296C282.745 144.012 272 133.267 272 120.012V16.012H48V368H400z" />
    <glyph glyph-name="stop-circle"
      unicode="&#xF28D;"
      horiz-adv-x="512" d=" M504 192C504 329 393 440 256 440S8 329 8 192S119 -56 256 -56S504 55 504 192zM56 192C56 302.5 145.5 392 256 392S456 302.5 456 192S366.5 -8 256 -8S56 81.5 56 192zM352 272V112C352 103.2 344.8 96 336 96H176C167.2 96 160 103.2 160 112V272C160 280.8 167.2 288 176 288H336C344.8 288 352 280.8 352 272z" />
    <glyph glyph-name="sun"
      unicode="&#xF185;"
      horiz-adv-x="512" d=" M220.116 -39.936L199.903 9.489A3.9920000000000004 3.9920000000000004 0 0 1 194.095 11.3750000000001L148.691 -16.7289999999999C119.225 -34.9689999999999 82.396 -8.2099999999999 90.637 25.45L103.336 77.3150000000001A3.9930000000000003 3.9930000000000003 0 0 1 99.746 82.256L46.495 86.2070000000001C11.941 88.7690000000001 -2.137 132.0620000000001 24.321 154.4540000000001L65.08 188.95A3.9920000000000004 3.9920000000000004 0 0 1 65.08 195.056L24.32 229.553C-2.13 251.937 11.93 295.235 46.494 297.799L99.745 301.75A3.9930000000000003 3.9930000000000003 0 0 1 103.335 306.691L90.637 358.557C82.398 392.213 119.218 418.977 148.691 400.736L194.094 372.632A3.9930000000000003 3.9930000000000003 0 0 1 199.902 374.519L220.115 423.944C233.231 456.015 278.753 456.025 291.873 423.944L312.085 374.52A3.9939999999999998 3.9939999999999998 0 0 1 317.894 372.6330000000001L363.2970000000001 400.737C392.761 418.973 429.5940000000001 392.224 421.351 358.558L408.652 306.693A3.9950000000000006 3.9950000000000006 0 0 1 412.242 301.752L465.4929999999999 297.8010000000001C500.0459999999999 295.2380000000001 514.126 251.947 487.6679999999999 229.555L446.908 195.058A3.9930000000000003 3.9930000000000003 0 0 1 446.908 188.951L487.6679999999999 154.455C514.179 132.014 499.99 88.766 465.4929999999999 86.208L412.242 82.257A3.9930000000000003 3.9930000000000003 0 0 1 408.653 77.3149999999999L421.351 25.451C429.592 -8.207 392.7679999999999 -34.97 363.2969999999999 -16.729L317.8939999999999 11.3749999999999A3.9939999999999998 3.9939999999999998 0 0 1 312.0849999999999 9.4879999999999L291.8729999999999 -39.936C278.7139999999999 -72.114 233.1979999999999 -71.9290000000001 220.1159999999999 -39.936zM236.93 24.632L255.994 -21.984L275.058 24.631C285.366 49.831 315.836 59.697 338.95 45.39L381.772 18.883L369.796 67.802C363.321 94.246 382.176 120.141 409.283 122.151L459.509 125.877L421.065 158.413C400.283 176.004 400.318 208.034 421.066 225.593L459.508 258.129L409.283 261.856C382.132 263.871 363.333 289.8040000000001 369.795 316.2050000000001L381.773 365.124L338.95 338.617C315.799 324.29 285.347 334.217 275.058 359.377L255.994 405.992L236.93 359.375C226.625 334.177 196.152 324.3090000000001 173.039 338.615L130.216 365.123L142.193 316.2050000000001C148.667 289.759 129.812 263.867 102.705 261.855L52.481 258.129L90.924 225.592C111.706 208.004 111.671 175.973 90.924 158.414L52.48 125.877L102.706 122.151C129.857 120.137 148.656 94.204 142.193 67.802L130.216 18.883L173.039 45.39C196.227 59.7450000000001 226.661 49.742 236.93 24.6320000000001zM256 64C185.42 64 128 121.421 128 192C128 262.58 185.42 320 256 320C326.579 320 384 262.58 384 192C384 121.421 326.579 64 256 64zM256 272C211.888 272 176 236.112 176 192S211.888 112 256 112S336 147.888 336 192S300.112 272 256 272z" />
    <glyph glyph-name="thumbs-down"
      unicode="&#xF165;"
      horiz-adv-x="512" d=" M466.27 222.69C470.944 245.337 467.134 267.228 457.28 285.68C460.238 309.548 453.259 334.245 439.94 352.67C438.986 408.577 404.117 448 327 448C320 448 312 447.99 304.78 447.99C201.195 447.99 168.997 408 128 408H117.155C111.515 412.975 104.113 416 96 416H32C14.327 416 0 401.673 0 384V144C0 126.327 14.327 112 32 112H96C107.842 112 118.175 118.438 123.708 128H130.76C149.906 111.047 176.773 67.347 199.52 44.6C213.187 30.9330000000001 209.673 -64 271.28 -64C328.86 -64 366.55 -32.064 366.55 40.73C366.55 59.14 362.62 74.46 357.7 87.27H394.18C442.782 87.27 479.9999999999999 128.835 479.9999999999999 172.85C479.9999999999999 192 475.04 207.84 466.2699999999999 222.69zM64 152C50.745 152 40 162.745 40 176S50.745 200 64 200S88 189.255 88 176S77.255 152 64 152zM394.18 135.27H290.19C290.19 97.45 318.55 79.9 318.55 40.73C318.55 16.98 318.55 -16.0000000000001 271.2800000000001 -16.0000000000001C252.3700000000001 2.91 261.8200000000001 50.18 233.4600000000001 78.54C206.9 105.11 167.28 176 138.92 176H128V362.17C181.611 362.17 228.001 399.99 299.64 399.99H337.46C372.972 399.99 398.28 382.87 390.58 334.0900000000001C405.78 325.93 417.08 297.65 404.52 276.52C426.101 256.136 423.219 225.455 409.73 210.9C419.18 210.9 432.09 191.99 432 173.09C431.91 154.18 415.29 135.2700000000001 394.18 135.2700000000001z" />
    <glyph glyph-name="thumbs-up"
      unicode="&#xF164;"
      horiz-adv-x="512" d=" M466.27 161.31C475.04 176.16 480 192 480 211.15C480 255.165 442.782 296.73 394.18 296.73H357.7C362.62 309.54 366.55 324.86 366.55 343.27C366.55 416.064 328.86 448 271.28 448C209.673 448 213.187 353.067 199.52 339.4C176.773 316.653 149.905 272.953 130.76 256H32C14.327 256 0 241.673 0 224V-16C0 -33.673 14.327 -48 32 -48H96C110.893 -48 123.408 -37.826 126.978 -24.05C171.487 -25.051 202.038 -63.99 304.78 -63.99C312 -63.99 320 -64 327 -64C404.117 -64 438.986 -24.577 439.94 31.33C453.259 49.755 460.239 74.452 457.28 98.32C467.134 116.772 470.944 138.663 466.27 161.31zM404.52 107.48C417.08 86.35 405.78 58.0700000000001 390.58 49.91C398.28 1.13 372.972 -15.99 337.46 -15.99H299.64C228.001 -15.99 181.611 21.83 128 21.83V208H138.92C167.28 208 206.9 278.89 233.46 305.46C261.82 333.82 252.37 381.09 271.28 400C318.55 400 318.55 367.02 318.55 343.27C318.55 304.1 290.19 286.55 290.19 248.73H394.18C415.29 248.73 431.91 229.82 432 210.91C432.0899999999999 192.01 419.18 173.1 409.73 173.1C423.219 158.545 426.101 127.864 404.52 107.48zM88 16C88 2.745 77.255 -8 64 -8S40 2.745 40 16S50.745 40 64 40S88 29.255 88 16z" />
    </font>
</defs>
</svg>
